• 0
  • 0
  • done
Anonymous Download
  • [TR24][OF] Alphanumeric - Condemnation of Memory - 2019 (Grindcore)
  • -
  • яоr
  • TR24 Alphanumeric Condemnation Memory 2019 Grindcore
  • Hi-Res stereo и многоканальная
Warning! Use a VPN When Downloading Torrents!
Your IP Address is ,
Your Internet Provider can see when you download torrents! Hide your IP ADDRESS with a VPN
We strongly recommend Trust.Zone VPN to hide your torrenting. It's FREE!
DOWNLOAD VPN

Description

image

Alphanumeric

image

Condemnation of Memory

image

image

• Формат записи | Источник записи: [TR24][OF]

• Наличие водяных знаков: Нет

• Год издания релиза: 2019

• Жанр: Grindcore

• Продолжительность: 00:08:11

• Источник:

BC

• WEB релиз: ссылка

• Контейнер: FLAC (*.flac)

• Тип рипа: tracks

• Разрядность: 24/44,1

• Формат: WAV (flac.ape.wv)

• Количество каналов: 2.0

• Наличие сканов: front

image

◈ 01 - The Cause and Effect of Falling

(00:01:02)

◈ 02 - Loneliness is Warfare

(00:01:06)

◈ 03 - Hands of the Diplomat

(00:01:34)

◈ 04 - Bit Mapped Atlas

(00:01:46)

◈ 05 - Spite House

(00:01:17)

◈ 06 - Condemnation of Memory

(00:01:23)

image


• Замер динамического диапазона •

`foobar2000 1.4.2 / Dynamic Range Meter 1.1.1
log date: 2019-06-01 16:02:41


Analyzed: Alphanumeric / Condemnation of Memory
DR Peak RMS Duration Track

DR6 -0.20 dB -7.10 dB 1:02 01-The Cause and Effect of Falling
DR5 -0.20 dB -6.48 dB 1:07 02-Loneliness is Warfare
DR6 -0.20 dB -6.88 dB 1:34 03-Hands of the Diplomat
DR6 -0.20 dB -6.73 dB 1:47 04-Bit Mapped Atlas
DR6 -0.20 dB -7.16 dB 1:18 05-Spite House

DR6 -0.20 dB -7.08 dB 1:24 06-Condemnation of Memory

Number of tracks: 6
Official DR value: DR6

Samplerate: 44100 Hz
Channels: 2
Bits per sample: 24
Bitrate: 1750 kbps
Codec: FLAC
================================================================================ `


image


More at ibit.to
And ibit.uno
And ibit.ws

Comments

Files

Stream

Downloading Seeding [TR24][OF] Alphanumeric - Condemnation of Memory - 2019 (Grindcore) from to 0 peers.
of
0 b/s / ↗0 b/s