• 0
  • 0
  • done
Anonymous Download
  • 2 Chainz - Rap Or Go To The League
  • 658 MB
  • Gazzover567
  • TR24 Chainz Rap League 2019 Hip Hop
  • Hi-Res stereo и многок
Warning! Use a VPN When Downloading Torrents!
Your IP Address is ,
Your Internet Provider can see when you download torrents! Hide your IP ADDRESS with a VPN
We strongly recommend Trust.Zone VPN to hide your torrenting. It's FREE!
DOWNLOAD VPN

Description

2 Chainz / Rap Or Go To The League

image

Формат записи/Источник записи : [TR24][OF]

Наличие водяных знаков : Нет

Год издания/переиздания диска : 2019

Жанр : Hip-Hop/Rap

Издатель (лейбл) : Gamebread, LLC, under exclusive license to Def Jam Recordings, a division of UMG Recordings, Inc.

Продолжительность : 00:54:38

Наличие сканов в содержимом раздачи : Только обложка альбома

Треклист :
1. Forgiven (feat. Marsha Ambrosius)
2. Threat 2 Society
3. Money In The Way
4. Statute Of Limitations
5. High Top Versace (feat. Young Thug)
6. Whip (feat. Travis Scott)
7. NCAA
8. Momma I Hit A Lick (feat. Kendrick Lamar)
9. Rule The World (feat. Ariana Grande)
10. Girl's Best Friend (feat. Ty Dolla $ign)
11. 2 Dollar Bill (feat. Lil Wayne & E-40)
12. I Said Me
13. I'm Not Crazy, Life Is (feat. Chance The Rapper & Kodak Black)
14. Sam

Контейнер : FLAC (*.flac)

Тип рипа : tracks

Разрядность : 24/48

Формат : FLAC

Количество каналов : 2.0

Лог проверки качества

`foobar2000 1.4 / Замер динамического диапазона (DR) 1.1.1
Дата отчёта: 2019-03-07 09:24:50


Анализ: 2 Chainz / Rap Or Go To The League
DR Пики RMS Продолжительность трека

DR5 -0.05 дБ -8.20 дБ 5:23 01-Forgiven (feat. Marsha Ambrosius)
DR7 -0.09 дБ -8.54 дБ 3:46 02-Threat 2 Society
DR6 -0.02 дБ -7.82 дБ 2:42 03-Money In The Way
DR4 -0.09 дБ -4.79 дБ 2:29 04-Statute Of Limitations
DR5 -0.35 дБ -5.91 дБ 2:57 05-High Top Versace (feat. Young Thug)
DR4 -0.10 дБ -6.91 дБ 3:47 06-Whip (feat. Travis Scott)
DR6 -0.02 дБ -7.56 дБ 4:08 07-NCAA
DR4 0.00 дБ -6.37 дБ 2:54 08-Momma I Hit A Lick (feat. Kendrick Lamar)
DR7 -0.21 дБ -10.12 дБ 4:06 09-Rule The World (feat. Ariana Grande)
DR3 0.00 дБ -4.92 дБ 3:13 10-Girl's Best Friend (feat. Ty Dolla $ign)
DR6 -0.05 дБ -7.75 дБ 4:00 11-2 Dollar Bill (feat. Lil Wayne & E-40)
DR4 -0.15 дБ -7.64 дБ 5:32 12-I Said Me
DR5 0.00 дБ -7.01 дБ 5:30 13-I'm Not Crazy, Life Is (feat. Chance The Rapper & Kodak Black)

DR6 -0.38 дБ -7.06 дБ 4:11 14-Sam

Количество треков: 14
Реальные значения DR: DR5

Частота: 48000 Гц
Каналов: 2
Разрядность: 24
Битрейт: 1710 кбит/с
Кодек: FLAC
================================================================================ `

Источник (релизер) : Tidal

Mastered for Tidal


More at ibit.to
And ibit.uno
And ibit.ws

Comments

7 months ago

thanks!

Files

4 Statute Of Limitations.flac 30 MB
1 Forgiven (feat. Marsha Ambrosius).flac 64 MB
9 Rule The World (feat. Ariana Grande).flac 50 MB
cover.jpg 567 kB
8 Momma I Hit A Lick (feat. Kendrick Lamar).flac 35 MB
10 Girl's Best Friend (feat. Ty Dolla $ign).flac 38 MB
12 I Said Me.flac 63 MB
2 Threat 2 Society.flac 48 MB
5 High Top Versace (feat. Young Thug).flac 35 MB
14 Sam.flac 52 MB
foo_dr.txt 1.9 kB
13 I'm Not Crazy, Life Is (feat. Chance The Rapper & Kodak Black).flac 64 MB
3 Money In The Way.flac 34 MB
11 2 Dollar Bill (feat. Lil Wayne & E-40).flac 49 MB
6 Whip (feat. Travis Scott).flac 45 MB
7 NCAA.flac 51 MB

Stream

Downloading Seeding 2 Chainz - Rap Or Go To The League from to 0 peers.
of
0 b/s / ↗0 b/s