• 1,772
  • 2,876
  • done
Anonymous Downloadondemand_video
  • 青春ブタ野郎はゆめみる少女の夢を見ない / Seishun Buta Yaro wa Yumemiru Shoujo no Yume wo Minai - Movie (WEB-DL 1920x1080 AAC)
  • 1.5 GB
  • xiaomeng
  • Seishun Buta Yaro Yumemiru Shoujo Yume Minai Movie WEB 1920x1080 AAC
  • Anime - Non-English-translated
Warning! Use a VPN When Downloading Torrents!
Your IP Address is ,
Your Internet Provider can see when you download torrents! Hide your IP ADDRESS with a VPN
We strongly recommend hide.me VPN to hide your torrenting. It's FREE!
DOWNLOAD VPN

Description

NAME
青春ブタ野郎はゆめみる少女の夢を見ない
Rascal Does Not Dream of a Dreaming Girl
Seishun Buta Yaro wa Yumemiru Shoujo no Yume wo Minai
青春期笨蛋不会梦到怀梦美少女
青春笨蛋少年不做怀梦美少女的梦
MediaInfo
General
Complete name                            : Seishun Buta Yaro wa Yumemiru Shoujo no Yume wo Minai - Movie (WEB-DL 1920x1080 AAC).mp4
Format                                   : MPEG-4
Format profile                           : Base Media
Codec ID                                 : isom (isom/iso2/avc1/mp41)
File size                                : 1.52 GiB
Duration                                 : 1 h 29 min
Overall bit rate                         : 2 422 kb/s
Writing application                      : Lavf58.33.100

Video
ID                                       : 1
Format                                   : AVC
Format/Info                              : Advanced Video Codec
Format profile                           : [email protected]
Format settings                          : CABAC / 4 Ref Frames
Format settings, CABAC                   : Yes
Format settings, Reference frames        : 4 frames
Codec ID                                 : avc1
Codec ID/Info                            : Advanced Video Coding
Duration                                 : 1 h 29 min
Bit rate                                 : 2 097 kb/s
Width                                    : 1 920 pixels
Height                                   : 1 080 pixels
Display aspect ratio                     : 16:9
Frame rate mode                          : Variable
Frame rate                               : 23.976 (23976/1000) FPS
Minimum frame rate                       : 16.129 FPS
Maximum frame rate                       : 24.390 FPS
Color space                              : YUV
Chroma subsampling                       : 4:2:0
Bit depth                                : 8 bits
Scan type                                : Progressive
Bits/(Pixel*Frame)                       : 0.042
Stream size                              : 1.32 GiB (87%)
Writing library                          : BiliBili H264 Encoder v1.0
Codec configuration box                  : avcC

Audio
ID                                       : 2
Format                                   : AAC LC
Format/Info                              : Advanced Audio Codec Low Complexity
Codec ID                                 : mp4a-40-2
Duration                                 : 1 h 29 min
Bit rate mode                            : Constant
Bit rate                                 : 320 kb/s
Channel(s)                               : 2 channels
Channel layout                           : L R
Sampling rate                            : 48.0 kHz
Frame rate                               : 46.875 FPS (1024 SPF)
Compression mode                         : Lossy
Stream size                              : 206 MiB (13%)
Default                                  : Yes
Alternate group                          : 1
Screenshots


More at ibit.to
And ibit.uno
And ibit.am
And ibit.ws

Comments

Files

Seishun Buta Yaro wa Yumemiru Shoujo no Yume wo Minai - Movie (WEB-DL 1920x1080 AAC).mp4 1.5 GB

Stream

Downloading Seeding 青春ブタ野郎はゆめみる少女の夢を見ない / Seishun Buta Yaro wa Yumemiru Shoujo no Yume wo Minai - Movie (WEB-DL 1920x1080 AAC) from to 0 peers.
of
0 b/s / ↗0 b/s