• 0
  • 0
  • done
Anonymous Download
  • (Psychedelic | Post-Rock) [WEB] Her Name is Calla - Animal Choir - 2019, FLAC (tracks), lossless
  • 425 MB
  • яоr
  • Psychedelic Post Rock WEB Calla Animal Choir 2019 FLAC tracks lossless
  • Зарубежные Alternative, Punk,
Warning! Use a VPN When Downloading Torrents!
Your IP Address is ,
Your Internet Provider can see when you download torrents! Hide your IP ADDRESS with a VPN
We strongly recommend Trust.Zone VPN to hide your torrenting. It's FREE!
DOWNLOAD VPN

Description

image

Her Name is Calla

image

Animal Choir

image

image

image

• Жанр: Psychedelic | Post-Rock

• Носитель:

WEB

• Год издания: 2019

• Страна: UK

• Аудиокодек: FLAC (*.flac)

• Тип рипа: tracks

• Продолжительность: 01:18:39

• Источник:

internet

• Наличие сканов: front

image

✧ 01 - Swan

(00:06:07)

✧ 02 - The Dead Rift

(00:04:24)

✧ 03 - Kaleidoscoping

(00:05:51)

✧ 04 - Bleach

(00:04:14)

✧ 05 - A Modern Vesper

(00:05:13)

✧ 06 - A Moment of Clarity

(00:06:07)

✧ 07 - A Rush of Blood

(00:02:09)

✧ 08 - Frontier

(00:06:30)

✧ 09 - Pyre

(00:02:47)

✧ 10 - Vanguard

(00:07:34)

✧ 11 - Deer Trapping

(00:02:00)

✧ 12 - To the Other

(00:06:28)

✧ 13 - Robert and Gerda

(00:08:41)

✧ 14 - Bloodline

(00:08:05)

✧ 15 - In This Patterned Room

(00:02:22)



• Лог DRM •

`foobar2000 1.4.2 / Dynamic Range Meter 1.1.1
log date: 2019-06-01 14:42:13


Analyzed: Her Name is Calla / Animal Choir
DR Peak RMS Duration Track

DR7 -0.28 dB -9.52 dB 6:07 01-Swan
DR7 -0.04 dB -9.61 dB 4:24 02-The Dead Rift
DR9 -0.28 dB -14.93 dB 5:51 03-Kaleidoscoping
DR8 -0.28 dB -11.24 dB 4:14 04-Bleach
DR7 -0.28 dB -11.31 dB 5:14 05-A Modern Vesper
DR8 -0.28 dB -11.30 dB 6:08 06-A Moment of Clarity
DR10 -2.10 dB -16.74 dB 2:10 07-A Rush of Blood
DR8 -0.28 dB -12.58 dB 6:31 08-Frontier
DR15 -6.05 dB -29.00 dB 2:48 09-Pyre
DR10 -0.28 dB -14.29 dB 7:35 10-Vanguard
DR11 -1.31 dB -16.83 dB 2:01 11-Deer Trapping
DR9 -0.28 dB -13.74 dB 6:28 12-To the Other
DR7 -0.28 dB -11.34 dB 8:41 13-Robert and Gerda
DR8 -0.28 dB -12.20 dB 8:05 14-Bloodline

DR12 -4.44 dB -21.82 dB 2:23 15-In This Patterned Room

Number of tracks: 15
Official DR value: DR9

Samplerate: 44100 Hz
Channels: 2
Bits per sample: 16
Bitrate: 533 kbps
Codec: FLAC
================================================================================ `


• Лог проверки качества •

`-----------------------

DON'T MODIFY THIS FILE


PERFORMER: auCDtect Task Manager, ver. 1.6.0 RC1 build 1.6.0.1
Copyright (c) 2008-2010 y-soft. All rights reserved
http://y-soft.org

ANALYZER: auCDtect: CD records authenticity detector, version 0.8.2
Copyright (c) 2004 Oleg Berngardt. All rights reserved.
Copyright (c) 2004 Alexander Djourik. All rights reserved.

FILE: 15 - In This Patterned Room.flac
Size: 9573386 Hash: 969153D9EF8233A862B789C7F3141094 Accuracy: -m8
Conclusion: CDDA 100%
Signature: 2EFEB09A88A71A68039B727D373C71FB01E54641
FILE: 14 - Bloodline.flac
Size: 42535770 Hash: C0C0C39D2921D1088DDF1A2A0480A23C Accuracy: -m8
Conclusion: CDDA 100%
Signature: 891691343D67430480AAD0BF159E39074700784A
FILE: 13 - Robert and Gerda.flac
Size: 51491058 Hash: 832ED87AE58F69CA471868472F728C8E Accuracy: -m8
Conclusion: CDDA 100%
Signature: 9414CE31D59F22BCDD21530C19E247D62077B68E
FILE: 12 - To the Other.flac
Size: 36505480 Hash: 811B55CF26DF7594884178FAB2D0ECFF Accuracy: -m8
Conclusion: CDDA 100%
Signature: 54D009AF96BB9C8937C5481B98CB900D2A318F5C
FILE: 11 - Deer Trapping.flac
Size: 9429108 Hash: 2FA0813692C4067BD849665FA333C880 Accuracy: -m8
Conclusion: CDDA 100%
Signature: 9978807364802E8614585158240E569F019085CC
FILE: 10 - Vanguard.flac
Size: 40418334 Hash: AE2527AF01A9469F660F7A35611FA5D4 Accuracy: -m8
Conclusion: CDDA 100%
Signature: 0A2674ED122254A2AF449B7A05A6D3559AA4B3AF
FILE: 09 - Pyre.flac
Size: 12029641 Hash: 9BA3CEDC9D042E171F76A8E1A44EA9F0 Accuracy: -m8
Conclusion: CDDA 100%
Signature: 408D9ADC5CA5BCDE2F1516CF4DD7DC75852FEE60
FILE: 08 - Frontier.flac
Size: 37313853 Hash: 35329740CB255CE7DAD2A74BEFABA4CD Accuracy: -m8
Conclusion: CDDA 100%
Signature: 1AD5FD66224B825DF41C8D5CFCCC5B9A6E1E3C24
FILE: 07 - A Rush of Blood.flac
Size: 11002543 Hash: 321BFDD966777608CD117EB3679BE571 Accuracy: -m8
Conclusion: CDDA 100%
Signature: 39152FAADB3BF30C7F615A7DC387B091D3435F5D
FILE: 06 - A Moment of Clarity.flac
Size: 39710512 Hash: 27A2F8AF181489A211BDE886A39362A6 Accuracy: -m8
Conclusion: CDDA 100%
Signature: BAC9408561F7136B58BB05CED5BBDADF03AE9C6A
FILE: 05 - A Modern Vesper.flac
Size: 30223360 Hash: B420E602696BB1BFC8CA9D451362406F Accuracy: -m8
Conclusion: CDDA 100%
Signature: BDD3BB8EFB9ED036F8741F31B379281CC30D9122
FILE: 04 - Bleach.flac
Size: 28007458 Hash: 25D46C95745EFE3BD44CD4D3228AC92C Accuracy: -m8
Conclusion: CDDA 100%
Signature: A6DFFA7DE0D9801F71F4CCE6C6F856C03A2ABBA5
FILE: 03 - Kaleidoscoping.flac
Size: 26462455 Hash: 8C838236D34ECE21529AC112873C0562 Accuracy: -m8
Conclusion: CDDA 76%
Signature: 28171A4A1254B89C2EE6DD83CA6AED63C96DA94B
FILE: 02 - The Dead Rift.flac
Size: 30156622 Hash: 3C849143646CD204A7195F66D791ACD4 Accuracy: -m8
Conclusion: CDDA 100%
Signature: C8B69FDC867908169EBF21931E6023A27C90F76B
FILE: 01 - Swan.flac
Size: 40165105 Hash: BC94FCC521CA2D404713AD9BB9B26DF7 Accuracy: -m8
Conclusion: CDDA 100%
Signature: FDC26E83B1B1DF03A18BFB43DC39569C2E46D59C `


image


More at ibit.to
And ibit.uno
And ibit.ws

Comments

Files

Stream

Downloading Seeding (Psychedelic | Post-Rock) [WEB] Her Name is Calla - Animal Choir - 2019, FLAC (tracks), lossless from to 0 peers.
of
0 b/s / ↗0 b/s