• 6
  • 0
  • done
Anonymous Download
  • [PotatoHead] Dragon Ball Super: Broly [English Subs] [1080pEdit]
  • 3.4 GB
  • akiratoriyamamanga
  • PotatoHead Dragon Ball Super Broly English Subs 1080pEdit
  • Anime - English-translated
Warning! Use a VPN When Downloading Torrents!
Your IP Address is ,
Your Internet Provider can see when you download torrents! Hide your IP ADDRESS with a VPN
We strongly recommend Trust.Zone VPN to hide your torrenting. It's FREE!
DOWNLOAD VPN

Description

Sean Schemmel is Ted Cruz

Release Differences

Video was combined from several sources. PotatoHead made edits to make the movie experience enjoyable. This will likely be the best release until others do their own cam rips. Which will probably happen around the time the dub premiers in the United States.

We've improved the subtitles thanks to better audio. Everything in this release was properly retimed. Some footage may have low quality bits because the angle was bad in other sources. You will also notice bits and pieces of different audio, too.

Media Info

``` ideo ID : 1 Format : AVC Format/Info : Advanced Video Codec Format profile : [email protected] Format settings : CABAC / 4 Ref Frames Format settings, CABAC : Yes Format settings, RefFrames : 4 frames Codec ID : V_MPEG4/ISO/AVC Duration : 1 h 35 min Bit rate : 4 882 kb/s Width : 1 920 pixels Height : 1 080 pixels Display aspect ratio : 16:9 Frame rate mode : Constant Frame rate : 29.970 (29970/1000) FPS Color space : YUV Chroma subsampling : 4:2:0 Bit depth : 8 bits Scan type : Progressive Bits/(Pixel*Frame) : 0.079 Stream size : 3.24 GiB (96%) Title : PotatoHead Writing library : x264 core 152 r2854 e9a5903 Language : Japanese Default : Yes Forced : No

Audio ID : 2 Format : AAC LC Format/Info : Advanced Audio Codec Low Complexity Codec ID : A_AAC-2 Duration : 1 h 35 min Bit rate : 192 kb/s Channel(s) : 2 channels Channel layout : L R Sampling rate : 48.0 kHz Frame rate : 46.875 FPS (1024 SPF) Compression mode : Lossy Stream size : 133 MiB (4%) Title : PotatoHead Language : Japanese Default : Yes Forced : No

Text ID : 3 Format : ASS Codec ID : S_TEXT/ASS Codec ID/Info : Advanced Sub Station Alpha Duration : 1 h 35 min Bit rate : 74 b/s Count of elements : 961 Compression mode : Lossless Stream size : 52.2 KiB (0%) Title : PotatoHead Language : English Default : Yes Forced : No ```


If you want to download the previous torrent it's linked down below. 🔗 https://nyaa.si/view/1102961


More at ibit.to
And ibit.uno
And ibit.ws

Comments

9 months ago

screenshots pls

9 months ago

TC,WTF?

9 months ago

The Japanese finally learned how to sneak a cam into a theatre. Hallelujah! Not going to check this out since I already got tickets for the dub premiere, but glad someone did it!

9 months ago

Wasn't this recorded in France or something?

9 months ago

This quality is pretty good . Usually I hate cam rips . But this one is good .

9 months ago

Can we have a sceenshot pls?

9 months ago

Thx good quality for cam !

9 months ago

Can someone please link a screenshot?

9 months ago

@bankai, @ThePi7on, @iskanderDgreat: you can find screenshots on anime tosho

9 months ago

Screenshots:

Downloaded to my server and had my server snap about 2 dozen screenshots. No clue what the subtitles look like since I don't know how to have my server capture that.

The quality seems meh for the first chunk, very acceptable in the latter chunk with exceptions. Maybe someone else can give thoughts on the audio/subs for a full round bout idea of the release.

9 months ago

![]( ![]( ![](

9 months ago

The 1080p cam cut off like half the screen for the first part of the movie, so they had to use the edited/stabilized 360p cam for that part. The 1080p cam also cut out completely during Goku's SSB transformation and I think that part was substituted with an Instagram video (which was better than the 360 but still not great). Audio was similarly the best they could find.

9 months ago

@warui

The last screenshot looks phenomenal but Christ almighty, the angle and cropping is awful. As much as I want to watch this at home, I'm gonna wait for something better. Are DVDSCR still a thing? Guess not.

9 months ago

@r_Evolution Thanks man. I guess not all parts are in good resolution/cropping. Gotta wait some more time

8 months ago

Just a heads up. My screenshots posted above, the link is no longer valid.

I guess too many people viewed/downloaded it and MEGA looked and slapped me with a copyright takedown. Fortunately, it did nothing to my account but kill the link...

![](

Copyright takedown on some freaking screenshots...2019 is great already, lol.

Files

[PotatoHead] DBS Broly [EngSub][1080pEdit].mkv 3.4 GB

Stream

Downloading Seeding [PotatoHead] Dragon Ball Super: Broly [English Subs] [1080pEdit] from to 0 peers.
of
0 b/s / ↗0 b/s