• 0
  • 0
  • done
Anonymous Download
Warning! Use a VPN When Downloading Torrents!
Your IP Address is ,
Your Internet Provider can see when you download torrents! Hide your IP ADDRESS with a VPN
We strongly recommend Trust.Zone VPN to hide your torrenting. It's FREE!
DOWNLOAD VPN

Description

Gloria Estefan - Greatest Hits

image

Жанр : Pop

Год выпуска диска : 1992

Производитель диска : USA

Аудио кодек : FLAC

Тип рипа : tracks+.cue

Битрейт аудио : lossless

Продолжительность : 1:07:00

Трэклист :
01. Dr. Beat 04:22
02. Conga 04:15
03. Words Get In The Way 03:27
04. Can't Stay Away From You 03:57
05. Bad Boy 03:45
06. 1, 2, 3 (Remix) 03:35
07. Anything For You 04:03
08. Here We Are 04:51
09. Rhythm Is Gonna Get You 03:58
10. Get On Your Feet 03:39
11. Don't Wanna Lose You 04:10
12. Coming Out Of The Dark 04:06
13. Christmas Through Your Eyes 04:55
14. I See Your Smile 04:35
15. Go Away 04:19
16. Always Tomorrow 04:51

Доп. информация : Широко известная как "Королева латиноамериканской поп-музыки" Глория Эстефан продав
около 45 миллионов копий своих записей, стала самой успешной исполнительной певицей
за всю историю латиноамериканской музыки.
Альбом "Greatest Hits" четвертый альбом певицы, который в 1992 года стал платиновым.
Скачано из Internet: происхождение рипа неизвестно

Отчёт EAC

EAC extraction logfile from 14. October 2007, 19:42 for CD
Gloria Estefan / Greatest Hits

Used drive : NEC DVDRW ND-2510A Adapter: 1 ID: 0
Read mode : Secure with NO C2, accurate stream, disable cache
Read offset correction : 48
Overread into Lead-In and Lead-Out : No

Used output format : C:Program FilesFLACflac.exe (User Defined Encoder)
192 kBit/s
Additional command line options : -8 -A tukey(0.25) -A gauss(0.1875) -b 4096 -V -T "artist=%a" -T "src=%t" -T "album=%g" -T "date=%y" -T "tracknumber=%n" -T "genre=%m" %s --sector-align

Other options :
Fill up missing offset samples with silence : Yes
Delete leading and trailing silent blocks : No
Installed external ASPI interface

Track 1
Filename C:wipNew Folder01 - Gloria Estefan - Dr. Beat .wav

Pre-gap length 0:00:02.00

Peak level 97.3 %
Track quality 100.0 %
Test CRC 0E0EBFF5
Copy CRC 0E0EBFF5
Copy OK

Track 2
Filename C:wipNew Folder02 - Gloria Estefan - Conga .wav

Pre-gap length 0:00:00.56

Peak level 97.3 %
Track quality 99.9 %
Test CRC 37E95840
Copy CRC 37E95840
Copy OK

Track 3
Filename C:wipNew Folder03 - Gloria Estefan - Words Get In The Way .wav

Peak level 97.3 %
Track quality 99.9 %
Test CRC AC2A6E09
Copy CRC AC2A6E09
Copy OK

Track 4
Filename C:wipNew Folder04 - Gloria Estefan - Can't Stay Away From You .wav

Pre-gap length 0:00:01.70

Peak level 97.3 %
Track quality 100.0 %
Test CRC 09F7D000
Copy CRC 09F7D000
Copy OK

Track 5
Filename C:wipNew Folder05 - Gloria Estefan - Bad Boy .wav

Peak level 97.3 %
Track quality 99.9 %
Test CRC F1744C9A
Copy CRC F1744C9A
Copy OK

Track 6
Filename C:wipNew Folder06 - Gloria Estefan - 1, 2, 3 (Remix) .wav

Pre-gap length 0:00:01.06

Peak level 97.3 %
Track quality 100.0 %
Test CRC DE1006B6
Copy CRC DE1006B6
Copy OK

Track 7
Filename C:wipNew Folder07 - Gloria Estefan - Anything For You .wav

Pre-gap length 0:00:00.33

Peak level 97.3 %
Track quality 100.0 %
Test CRC E28F28EE
Copy CRC E28F28EE
Copy OK

Track 8
Filename C:wipNew Folder08 - Gloria Estefan - Here We Are .wav

Pre-gap length 0:00:01.53

Peak level 97.3 %
Track quality 100.0 %
Test CRC 14787AF5
Copy CRC 14787AF5
Copy OK

Track 9
Filename C:wipNew Folder09 - Gloria Estefan - Rhythm Is Gonna Get You .wav

Pre-gap length 0:00:01.42

Peak level 99.4 %
Track quality 100.0 %
Test CRC 0B776229
Copy CRC 0B776229
Copy OK

Track 10
Filename C:wipNew Folder10 - Gloria Estefan - Get On Your Feet .wav

Pre-gap length 0:00:02.42

Peak level 97.3 %
Track quality 100.0 %
Test CRC C38853F3
Copy CRC C38853F3
Copy OK

Track 11
Filename C:wipNew Folder11 - Gloria Estefan - Don't Wanna Lose You .wav

Pre-gap length 0:00:00.64

Peak level 97.3 %
Track quality 99.9 %
Test CRC 6B6491F3
Copy CRC 6B6491F3
Copy OK

Track 12
Filename C:wipNew Folder12 - Gloria Estefan - Coming Out Of The Dark .wav

Pre-gap length 0:00:01.29

Peak level 97.3 %
Track quality 100.0 %
Test CRC 6ECC781D
Copy CRC 6ECC781D
Copy OK

Track 13
Filename C:wipNew Folder13 - Gloria Estefan - Christmas Through Your Eyes .wav

Pre-gap length 0:00:02.04

Peak level 97.3 %
Track quality 100.0 %
Test CRC C45A545C
Copy CRC C45A545C
Copy OK

Track 14
Filename C:wipNew Folder14 - Gloria Estefan - I See Your Smile .wav

Pre-gap length 0:00:02.09

Peak level 97.3 %
Track quality 99.9 %
Test CRC 4F489ED8
Copy CRC 4F489ED8
Copy OK

Track 15
Filename C:wipNew Folder15 - Gloria Estefan - Go Away .wav

Pre-gap length 0:00:01.40

Peak level 97.3 %
Track quality 100.0 %
Test CRC C26E49A3
Copy CRC C26E49A3
Copy OK

Track 16
Filename C:wipNew Folder16 - Gloria Estefan - Always Tomorrow .wav

Pre-gap length 0:00:02.49

Peak level 97.3 %
Track quality 100.0 %
Test CRC E6A85021
Copy CRC E6A85021
Copy OK

No errors occured

End of status report


More at ibit.to
And ibit.uno
And ibit.ws

Comments

10 years ago

Rudik28 писал(а): agneshca-лог добавьте Пож. лог? что это?

10 years ago

agneshcaПосмотрите здесь Пож. и здесь

10 years ago

Rudik28 писал(а): agneshcaПосмотрите здесь Пож. и здесь спасиб. сейчас добавлю.

10 years ago

Rudik28 Спасибо за помощь новичку.agneshca Забыли добавить тип рипа. Поправил.

10 years ago

djeugene писал(а): Rudik28 Спасибо за помощь новичку.agneshca Забыли добавить тип рипа. Поправил. Спасибо за помощь. Стараюсь.

5 years ago

Нравится мне Эстефан, особенно своими медляками. Качественный музон 80-ых.

Files

13 - Gloria Estefan - Christmas Through Your Eyes .flac 31 MB
16 - Gloria Estefan - Always Tomorrow .flac 31 MB
01 - Gloria Estefan - Dr. Beat .flac 30 MB
14 - Gloria Estefan - I See Your Smile .flac 30 MB
02 - Gloria Estefan - Conga .flac 29 MB
15 - Gloria Estefan - Go Away .flac 29 MB
08 - Gloria Estefan - Here We Are .flac 27 MB
10 - Gloria Estefan - Get On Your Feet .flac 26 MB
11 - Gloria Estefan - Don't Wanna Lose You .flac 26 MB
05 - Gloria Estefan - Bad Boy .flac 25 MB
09 - Gloria Estefan - Rhythm Is Gonna Get You .flac 25 MB
06 - Gloria Estefan - 1, 2, 3 (Remix) .flac 24 MB
07 - Gloria Estefan - Anything For You .flac 24 MB
12 - Gloria Estefan - Coming Out Of The Dark .flac 23 MB
04 - Gloria Estefan - Can't Stay Away From You .flac 23 MB
03 - Gloria Estefan - Words Get In The Way .flac 21 MB
Artwork/Back.jpg 129 kB
Artwork/Cd.jpg 84 kB
Artwork/Thumb.jpg 35 kB
Gloria Estefan - Greatest Hits -(1992)[FAC-EAC-CUE].txt 6.2 kB
Greatest Hits.log 4.5 kB
Greatest Hits.cue 2.9 kB
Gloria Estefan - Greatest Hits.m3u 1.5 kB
Track list.txt 500 B

Stream

Downloading Seeding Gloria Estefan - Greatest Hits -(1992) from to 0 peers.
of
0 b/s / ↗0 b/s