• -
  • 12
  • done
Downloadondemand_video

Description

Hello!

My rips are made from Japanese BDMV, unless stated otherwise.

In terms of video quality, my raws should be comparable to ReinForce (since I started from their settings, and then modified it).

I don’t use AA, blur, denoise and other such “enhancements”. Basically, the idea of my encodes will be: as similar to BDMV as possible, while reducing size 3-4 times. Also I will rip Audio Commentaries, interview’s and such things (everything, that’s on BD).

Again, If you found any Bugs, mistakes, problems etc. Please comment! If needed I will reencode.

About this Anime: https://myanimelist.net/anime/39753/ https://anidb.net/perl-bin/animedb.pl?show=anime&aid=14883

SEED PLEASE!

Acknowledgments for BDMV:

UCCUSS & U2 Uploader

Acknowledgments for Soundtrack:

無損音樂及Hi-res聲明

Theme Song CD 由天使動漫的分享者的謝禮,合購區及偷跑區的論壇主導出資分享

動漫音樂微博,最新自購無損音樂更新情況 https://weibo.com/dmmusic

天使動漫TSDM自購,天使動漫音樂區原貼鏈接 https://www.tsdm39.net/forum.php?mod=forumdisplay&fid=247

MediaInfo: General Unique ID : 287056909778207914791850193173434607276 (0xD7F5265B294D38FBBC50E2E2594426AC) Complete name : D:workRipOmoi, Omoware, Furi, Furare[IrizaRaws] Omoi, Omoware, Furi, Furare (BDRip 1920x1080 x264 10bit DTS FLACx2)[IrizaRaws] Omoi, Omoware, Furi, Furare (BDRip 1920x1080 x264 10bit DTS FLACx2).mkv Format : Matroska Format version : Version 4 / Version 2 File size : 8.77 GiB Duration : 1 h 42 min Overall bit rate mode : Variable Overall bit rate : 12.2 Mb/s Encoded date : UTC 2021-04-29 15:50:55 Writing application : mkvmerge v52.0.0 ('Secret For The Mad') 64-bit Writing library : libebml v1.4.1 + libmatroska v1.6.2

Video ID : 1 Format : AVC Format/Info : Advanced Video Codec Format profile : High [email protected] Format settings : CABAC / 8 Ref Frames Format settings, CABAC : Yes Format settings, RefFrames : 8 frames Codec ID : VMPEG4/ISO/AVC Duration : 1 h 42 min Bit rate : 5 822 kb/s Width : 1 920 pixels Height : 1 080 pixels Display aspect ratio : 16:9 Frame rate mode : Constant Frame rate : 23.976 (24000/1001) FPS Color space : YUV Chroma subsampling : 4:2:0 Bit depth : 10 bits Scan type : Progressive Bits/(Pixel*Frame) : 0.117 Stream size : 4.18 GiB (48%) Writing library : x264 core 161 r3033 0d754ec Encoding settings : cabac=1 / ref=8 / deblock=1:-2:-2 / analyse=0x3:0x113 / me=umh / subme=9 / psy=1 / psyrd=0.70:0.00 / mixedref=0 / merange=32 / chromame=1 / trellis=2 / 8x8dct=1 / cqm=0 / deadzone=21,11 / fastpskip=0 / chromaqpoffset=-2 / threads=22 / lookaheadthreads=3 / slicedthreads=0 / nr=0 / decimate=1 / interlaced=0 / bluraycompat=0 / constrainedintra=0 / bframes=9 / bpyramid=2 / badapt=2 / bbias=0 / direct=0 / weightb=1 / opengop=0 / weightp=2 / keyint=250 / keyintmin=23 / scenecut=40 / intrarefresh=0 / rc=crf / mbtree=0 / crf=17.5 / qcomp=1.00 / qpmin=0 / qpmax=40 / qpstep=4 / ipratio=1.40 / pbratio=1.30 / aq=1:1.00 Default : Yes Forced : No

Audio #1 ID : 2 Format : DTS Format/Info : Digital Theater Systems Format profile : MA / Core Mode : 16 Format settings, Endianness : Big Codec ID : A_DTS Duration : 1 h 42 min Bit rate mode : Variable / Constant Bit rate : 3 669 kb/s / 1 509 kb/s Channel(s) : 6 channels Channel positions : Front: L C R, Side: L R, LFE Sampling rate : 48.0 kHz Frame rate : 93.750 FPS (512 SPF) Bit depth : 24 bits Compression mode : Lossless / Lossy Stream size : 2.64 GiB (30%) Title : Main DTS 5.1 Language : Japanese Default : Yes Forced : No

Audio #2 ID : 3 Format : FLAC Format/Info : Free Lossless Audio Codec Codec ID : A_FLAC Duration : 1 h 42 min Bit rate mode : Variable Bit rate : 1 335 kb/s Channel(s) : 2 channels Channel positions : Front: L R Sampling rate : 48.0 kHz Frame rate : 11.719 FPS (4096 SPF) Bit depth : 24 bits Stream size : 982 MiB (11%) Title : Main FLAC 2.0 Writing library : libFLAC 1.3.3 (UTC 2019-08-04) Language : Japanese Default : No Forced : No

Audio #3 ID : 4 Format : FLAC Format/Info : Free Lossless Audio Codec Codec ID : A_FLAC Duration : 1 h 42 min Bit rate mode : Variable Bit rate : 1 353 kb/s Channel(s) : 2 channels Channel positions : Front: L R Sampling rate : 48.0 kHz Frame rate : 11.719 FPS (4096 SPF) Bit depth : 24 bits Stream size : 996 MiB (11%) Title : Audio Guide Writing library : libFLAC 1.3.3 (UTC 2019-08-04) Language : Japanese Default : No Forced : No

Text ID : 5 Format : PGS Muxing mode : zlib Codec ID : S_HDMV/PGS Codec ID/Info : Picture based subtitle format used on BDs/HD-DVDs Duration : 1 h 42 min Bit rate : 44.2 kb/s Count of elements : 3288 Stream size : 32.3 MiB (0%) Language : Japanese Default : Yes Forced : No

Menu 00:00:00.000 : en:Chapter 01 00:01:56.241 : en:Chapter 02 00:09:38.035 : en:Chapter 03 00:23:43.588 : en:Chapter 04 00:40:56.412 : en:Chapter 05 00:52:44.161 : en:Chapter 06 01:01:41.072 : en:Chapter 07 01:19:36.772 : en:Chapter 08 01:37:40.688 : en:Chapter 09


More at ibit.to
And ibit.uno
And ibit.am
And ibit.ws

Comments

Files

MV/[IrizaRaws] Omoi, Omoware, Furi, Furare SPBD MV (BDRip 1920x1080 x264 10bit FLAC).mkv 405 MB
Menu/[IrizaRaws] Omoi, Omoware, Furi, Furare Menu - 01 (BDRip 1920x1080 x264 10bit DTS).mkv 48 MB
Menu/[IrizaRaws] Omoi, Omoware, Furi, Furare Menu - 02 (BDRip 1920x1080 x264 10bit DTS).mkv 8.0 MB
Menu/[IrizaRaws] Omoi, Omoware, Furi, Furare Menu SPBD (BDRip 1920x1080 x264 10bit FLAC).mkv 39 MB
PV/[IrizaRaws] Omoi, Omoware, Furi, Furare SPBD CM (BDRip 1920x1080 x264 10bit FLAC).mkv 26 MB
PV/[IrizaRaws] Omoi, Omoware, Furi, Furare SPBD PV - 01 (BDRip 1920x1080 x264 10bit FLAC).mkv 40 MB
PV/[IrizaRaws] Omoi, Omoware, Furi, Furare SPBD PV - 02 (BDRip 1920x1080 x264 10bit FLAC).mkv 44 MB
PV/[IrizaRaws] Omoi, Omoware, Furi, Furare SPBD PV - 03 (BDRip 1920x1080 x264 10bit FLAC).mkv 122 MB
RL/[IrizaRaws] Omoi, Omoware, Furi, Furare SPBD RL - 01 (BDRip 1920x1080 x264 10bit FLAC).mkv 2.4 GB
RL/[IrizaRaws] Omoi, Omoware, Furi, Furare SPBD RL - 02 (BDRip 1920x1080 x264 10bit FLAC).mkv 2.2 GB
Scans/Scan 001.png 12 MB
Scans/Scan 002.png 18 MB
Scans/Scan 003.png 3.5 MB
Scans/Scan 004.png 22 MB
Scans/Scan 005.png 2.3 MB
Scans/Scan 006.png 3.6 MB
Scans/Scan 007.png 9.0 MB
Scans/Scan 008.png 9.0 MB
Scans/Scan 009.png 16 MB
Scans/Scan 010.png 6.2 MB
Scans/Scan 011.png 18 MB
Scans/Scan 012.png 4.0 MB
Scans/Scan 013.png 10 MB
Scans/Scan 014.png 3.5 MB
Scans/Scan 015.png 2.6 MB
Scans/Scan 016.png 8.6 MB
Scans/Scan 017.png 5.6 MB
Scans/Scan 018.png 6.8 MB
Scans/Scan 019.png 14 MB
Scans/Scan 020.png 12 MB
Scans/Scan 021.png 11 MB
Scans/[IrizaRaws] Omoi, Omoware, Furi, Furare Logo (BDRip 1920x1080 x264 10bit DTS).mkv 3.8 MB
Scans/[IrizaRaws] Omoi, Omoware, Furi, Furare Logo SPBD (BDRip 1920x1080 x264 10bit FLAC).mkv 1.8 MB
scans/back.png 21 MB
scans/bk-1.png 31 MB
scans/bk-2.png 22 MB
scans/bk-3.png 37 MB
scans/bk-4.png 36 MB
scans/bk-5.png 38 MB
scans/bk-6.png 36 MB
scans/cd.png 2.9 MB
scans/front.png 14 MB
scans/obi-1.png 4.0 MB
scans/obi-2.png 825 kB
scans/tray.png 24 MB
scans/01. 始まりの雨.flac 4.1 MB
scans/02. 別れと出会い.flac 4.9 MB
scans/03. 突然の...追いかけっこ!.flac 5.3 MB
scans/04. 今日から友達.flac 5.1 MB
scans/05. まだ本当の恋を知らない.flac 3.8 MB
scans/06. 視線の先には.flac 909 kB
scans/07. 初恋の王子様.flac 3.4 MB
scans/08. 本当に....flac 2.5 MB
scans/09. 由奈と理央.flac 3.0 MB
scans/10. 大切にしなきゃいけないものでしょ.flac 2.8 MB
scans/11. 勝手に決めつけて.flac 2.6 MB
scans/12. 由奈の決心.flac 1.7 MB
scans/13. 中学生の頃.flac 1.3 MB
scans/14. 下を向いてる場合じゃない!.flac 8.0 MB
scans/15. 告白のススメ.flac 3.2 MB
scans/16. 朱里の怒り.flac 1.6 MB
scans/17. 想い出のジュエリーボックス.flac 2.3 MB
scans/18. あの日も雨だった.flac 11 MB
scans/19. 今度こそ....flac 1.9 MB
scans/20. 朱里と由奈のキモチ.flac 7.5 MB
scans/21. 始まりの合図.flac 2.2 MB
scans/22. ちゃんと向き合う約束.flac 4.8 MB
scans/23. あの日の真実.flac 1.8 MB
scans/24. 優しい嘘.flac 6.2 MB
scans/25. 理央の戸惑い.flac 904 kB
scans/26. なんでだろう....flac 2.1 MB
scans/27. 2人だけの秘密.flac 3.1 MB
scans/28. 好きになっちゃいけない.flac 5.4 MB
scans/29. 憂鬱な王子様.flac 3.2 MB
scans/30. 初恋の人は....flac 6.7 MB
scans/31. ライバル宣言!.flac 4.5 MB
scans/32. 彼女を幸せにするために.flac 6.5 MB
scans/33. 優しいキモチ.flac 1.8 MB
scans/34. いつか、世界の片隅で.flac 3.4 MB
scans/35. 無かったことに.flac 1.6 MB
scans/36. それぞれの冬.flac 12 MB
scans/37. Twelve Days of Christmas.flac 6.3 MB
scans/38. クリスマスの過ごし方.flac 4.5 MB
scans/39. 家族のために.flac 2.3 MB
scans/40. 叶わなかった願い.flac 1.8 MB
scans/41. 雪降る街で.flac 1.7 MB
scans/42. すれ違うキモチ.flac 5.7 MB
scans/43. 今度は私が...!.flac 6.0 MB
scans/44. 朱里と和臣.flac 6.4 MB
scans/45. 思い、思われ、ふり、ふられ.flac 13 MB
scans/RBCP-3377.cue 6.4 kB
scans/RBCP-3377.log 32 kB
scans/cover.jpg 228 kB
BK/01.png 6.8 MB
BK/02.png 6.2 MB
BK/03.png 6.4 MB
BK/04.png 6.2 MB
BK/05.png 6.3 MB
BK/06.png 5.4 MB
BK/07.png 7.2 MB
BK/08.png 6.6 MB
BK/09.png 2.5 MB
BK/10.png 1.3 MB
BK/11.png 2.3 MB
BK/12.png 4.1 MB
BK/ACACIA.ISO 910 MB
BK/BUMP OF CHICKEN - アカシア,Gravity.cue 518 B
BK/BUMP OF CHICKEN - アカシア,Gravity.log 3.2 kB
BK/BUMP OF CHICKEN - アカシア,Gravity.wav 96 MB
BK/cover1a.jpg 302 kB
BK/cover1b.jpg 126 kB
BK/cover2.jpg 5.6 MB
BK/天使動漫TSDM自購,如需轉載請看.txt 615 B
BK/[IrizaRaws] Omoi, Omoware, Furi, Furare (BDRip 1920x1080 x264 10bit DTS FLACx2).mkv 8.8 GB

Stream

Downloading Seeding [IrizaRaws] Omoi, Omoware, Furi, Furare (BDRip 1920x1080 x264 10bit DTS FLACx2) from to 0 peers.
of
0 b/s / ↗0 b/s