• 0
  • 0
  • done
Anonymous Download
Warning! Use a VPN When Downloading Torrents!
Your IP Address is ,
Your Internet Provider can see when you download torrents! Hide your IP ADDRESS with a VPN
We strongly recommend Trust.Zone VPN to hide your torrenting. It's FREE!
DOWNLOAD VPN

Description

image

Steel Emblem

image

Fight Against The Destiny

image

image

image

• Жанр: Heavy | Power Metal

• Носитель: CD

• Год издания: 2018

• Издатель: SEAL

• Номер по каталогу: 0001

• Страна: Japan

• Аудиокодек: FLAC (*.flac)

• Тип рипа: image+.cue

• Продолжительность: 00:50:07

• Источник: Ilijan

• Наличие сканов: да

image

✧ 01. Fight Against The Destiny - Pathetique [00:06:13]

✧ 02. Stand Up And Ready [00:05:08]

✧ 03. Requiem - At The End Of The World [00:06:28]

✧ 04. Burning Like A Flame [00:05:01]

✧ 05. OMOKAGE [00:05:34]

✧ 06. Freedom Sky [00:05:56]

✧ 07. Get Starting Over [00:04:24]

✧ 08. Never Lose It [00:05:16]

✧ 09. Over The Border [00:06:06]


• Содержание индексной карты •

REM GENRE "Heavy/Power Metal" REM DATE 2018 REM DISCID 6E0BBF09 REM COMMENT "ExactAudioCopy v1.3" PERFORMER "Steel Emblem" TITLE "Fight Against The Destiny" FILE "Steel Emblem - Fight Against The Destiny.flac" WAVE TRACK 01 AUDIO TITLE "Fight Against The Destiny - Pathetique" PERFORMER "Steel Emblem" INDEX 01 00:00:00 TRACK 02 AUDIO TITLE "Stand Up And Ready" PERFORMER "Steel Emblem" INDEX 01 06:13:09 TRACK 03 AUDIO TITLE "Requiem - At The End Of The World" PERFORMER "Steel Emblem" INDEX 01 11:21:34 TRACK 04 AUDIO TITLE "Burning Like A Flame" PERFORMER "Steel Emblem" INDEX 01 17:49:45 TRACK 05 AUDIO TITLE "OMOKAGE" PERFORMER "Steel Emblem" INDEX 01 22:50:61 TRACK 06 AUDIO TITLE "Freedom Sky" PERFORMER "Steel Emblem" INDEX 01 28:24:68 TRACK 07 AUDIO TITLE "Get Starting Over" PERFORMER "Steel Emblem" INDEX 01 34:21:17 TRACK 08 AUDIO TITLE "Never Lose It" PERFORMER "Steel Emblem" INDEX 01 38:45:46 TRACK 09 AUDIO TITLE "Over The Border" PERFORMER "Steel Emblem" INDEX 01 44:01:50


• Лог создания рипа •

`Exact Audio Copy V1.3 from 2. September 2016

EAC extraction logfile from 16. June 2018, 12:01

Steel Emblem / Fight Against The Destiny

Used drive : ATAPI iHAS122 W Adapter: 2 ID: 0

Read mode : Secure
Utilize accurate stream : Yes
Defeat audio cache : Yes
Make use of C2 pointers : No

Read offset correction : 48
Overread into Lead-In and Lead-Out : No
Fill up missing offset samples with silence : Yes
Delete leading and trailing silent blocks : No
Null samples used in CRC calculations : Yes
Used interface : Installed external ASPI interface

Used output format : User Defined Encoder
Selected bitrate : 1024 kBit/s
Quality : High
Add ID3 tag : No
Command line compressor : C:Program FilesFLACflac.exe
Additional command line options : -V -8 -T "Date=%year%" -T "Genre=%genre%" -T"COMMENT=Ripped by Ilijan [MeTaLMaDNeSS.TeaM]" -8 -V %source%

TOC of the extracted CD

Track | Start | Length | Start sector | End sector


1 | 0:00.00 | 6:13.09 | 0 | 27983
2 | 6:13.09 | 5:08.25 | 27984 | 51108
3 | 11:21.34 | 6:28.11 | 51109 | 80219
4 | 17:49.45 | 5:01.16 | 80220 | 102810
5 | 22:50.61 | 5:34.07 | 102811 | 127867
6 | 28:24.68 | 5:56.24 | 127868 | 154591
7 | 34:21.17 | 4:24.29 | 154592 | 174420
8 | 38:45.46 | 5:16.04 | 174421 | 198124
9 | 44:01.50 | 6:06.02 | 198125 | 225576

Range status and errors

Selected range

Filename D:DeliriumSteel Emblem - Fight Against The Destiny.wav

Peak level 99.9 %
Extraction speed 4.0 X
Range quality 100.0 %
Test CRC DE259D91
Copy CRC DE259D91
Copy OK

No errors occurred

AccurateRip summary

Track 1 not present in database
Track 2 not present in database
Track 3 not present in database
Track 4 not present in database
Track 5 not present in database
Track 6 not present in database
Track 7 not present in database
Track 8 not present in database
Track 9 not present in database

None of the tracks are present in the AccurateRip database

End of status report

---- CUETools DB Plugin V2.1.6

[CTDB TOCID: 9e4gYLLn3r.6VmZqB9YA.jy8-] found
Submit result: 9e4
gYLLn3r.6VmZqB9YA.jy8- has been confirmed
Track | CTDB Status
1 | (2/2) Accurately ripped
2 | (2/2) Accurately ripped
3 | (2/2) Accurately ripped
4 | (2/2) Accurately ripped
5 | (2/2) Accurately ripped
6 | (2/2) Accurately ripped
7 | (2/2) Accurately ripped
8 | (2/2) Accurately ripped
9 | (2/2) Accurately ripped

==== Log checksum CD40FECA125A8F414E07BA8624E8EE92C2AC40BFB9F10918AF3A17AB39FABCF4 ==== `


image


More at ibit.to
And ibit.uno
And ibit.ws

Comments

Files

Stream

Downloading Seeding (Heavy | Power Metal) [CD] Steel Emblem - Fight Against The Destiny - 2018, FLAC (image+.cue), lossless from to 0 peers.
of
0 b/s / ↗0 b/s