• 0
  • 0
  • done
Anonymous Download
Warning! Use a VPN When Downloading Torrents!
Your IP Address is ,
Your Internet Provider can see when you download torrents! Hide your IP ADDRESS with a VPN
We strongly recommend Trust.Zone VPN to hide your torrenting. It's FREE!
DOWNLOAD VPN

Description

image

Elephant9

image

Psychedelic Backfire I

image

image

image

• Жанр: Fusion | Jazz

• Носитель:

WEB

• Год издания: 2019

• Издатель: Rune Grammofon

• Страна: Norway

• Аудиокодек: FLAC (*.flac)

• Тип рипа: tracks

• Продолжительность: 01:11:19

• Источник:

internet

• Наличие сканов: front

image

✧ 01 - I Cover The Mountain Top

(00:12:05)

✧ 02 - Farmer's Secret

(00:07:20)

✧ 03 - Habanera Rocket

(00:17:59)

✧ 04 - SkinkFugl Fonix

(00:13:21)

✧ 05 - Actionpack1

(00:09:19)

✧ 06 - Dodovoodoo

(00:11:11)



• Лог DRM •

`foobar2000 1.4.2 / Dynamic Range Meter 1.1.1
log date: 2019-06-01 14:58:00


Analyzed: Elephant9 / Psychedelic Backfire I
DR Peak RMS Duration Track

DR6 -0.99 dB -9.94 dB 12:06 01-I Cover The Mountain Top
DR8 -1.00 dB -10.03 dB 7:20 02-Farmer's Secret
DR8 -0.99 dB -11.53 dB 18:00 03-Habanera Rocket
DR6 -0.98 dB -8.47 dB 13:22 04-Skink/Fugl Fønix
DR6 -0.99 dB -7.78 dB 9:20 05-Actionpack1

DR6 -0.98 dB -8.79 dB 11:12 06-Dodovoodoo

Number of tracks: 6
Official DR value: DR7

Samplerate: 44100 Hz
Channels: 2
Bits per sample: 16
Bitrate: 895 kbps
Codec: FLAC
================================================================================ `


• Лог проверки качества •

`-----------------------

DON'T MODIFY THIS FILE


PERFORMER: auCDtect Task Manager, ver. 1.6.0 RC1 build 1.6.0.1
Copyright (c) 2008-2010 y-soft. All rights reserved
http://y-soft.org

ANALYZER: auCDtect: CD records authenticity detector, version 0.8.2
Copyright (c) 2004 Oleg Berngardt. All rights reserved.
Copyright (c) 2004 Alexander Djourik. All rights reserved.

FILE: 06 - Dodovoodoo.flac
Size: 75544237 Hash: F661F22FD972E2F8F166D6CD5CEF2905 Accuracy: -m8
Conclusion: CDDA 100%
Signature: C994044DBEAFCBDD97B55A4568CE9F050659AECC
FILE: 05 - Actionpack1.flac
Size: 64001482 Hash: FE69229ACB682D104656F223489F53C4 Accuracy: -m8
Conclusion: CDDA 100%
Signature: 30D7265B781FC5EF204FBB34CBC6F6D2B7F8BE32
FILE: 04 - SkinkFugl Fonix.flac
Size: 93847731 Hash: 0A81394C313B8EDA12465A0CD62CDCBF Accuracy: -m8
Conclusion: CDDA 100%
Signature: 76882FBA249222262F3F939DAA3C4761895970A1
FILE: 03 - Habanera Rocket.flac
Size: 108598085 Hash: 1DE7F158A388F48672199295D05744E1 Accuracy: -m8
Conclusion: CDDA 100%
Signature: 6E328E6CEEE64043191DE36113603BC609BFB316
FILE: 02 - Farmer's Secret.flac
Size: 49904810 Hash: C58951246A7449B4BF1563A447924D60 Accuracy: -m8
Conclusion: CDDA 100%
Signature: E6521193504C820493CD2434B2E06CAD81BE74F5
FILE: 01 - I Cover The Mountain Top.flac
Size: 70922021 Hash: 265AB15EADAA6D61D1E2AA2B73FFC185 Accuracy: -m8
Conclusion: CDDA 100%
Signature: 813FFCEA97B29A2572D4E7DF380A7F81A60C6D37 `



• Band •

image

image


More at ibit.to
And ibit.uno
And ibit.ws

Comments

Files

Stream

Downloading Seeding (Fusion | Jazz Rock) [WEB] Elephant9 - Psychedelic Backfire I - 2019, FLAC (tracks), lossless from to 0 peers.
of
0 b/s / ↗0 b/s