• 0
  • 0
  • done
Anonymous Download
Warning! Use a VPN When Downloading Torrents!
Your IP Address is ,
Your Internet Provider can see when you download torrents! Hide your IP ADDRESS with a VPN
We strongly recommend Trust.Zone VPN to hide your torrenting. It's FREE!
DOWNLOAD VPN

Description

TeeKay / Reflections

image

Жанр : Electronic, Berlin School

Носитель : CD

Страна-производитель диска (релиза) : Germany

Год издания : 1991

Издатель (лейбл) : Innovative Communication

Номер по каталогу : IC 710.139

Аудиокодек : FLAC (*.flac)

Тип рипа : image+.cue

Битрейт аудио : lossless

Продолжительность : 01:04:32

Источник : собственный рип

Наличие сканов в содержимом раздачи : нет

Треклист :

  1. Free Your Body (Vocal) 4:28
    1. Soft Sax 4:03
    2. A Terra, A Vida (Vocal) 5:21
    3. Reflections 6:34
    4. Crystal Daydream 6:42
    5. Andromeda...The Journey 9:44
    6. Namura 8:58
    7. Partial Eclipse 7:18
    8. Insomnia 5:52
    9. A Terra, A Vida (Instrumental Cut) 5:14

Лог создания рипа

`Exact Audio Copy V1.1 from 23. June 2015

EAC extraction logfile from 15. March 2019, 18:16

TeeKay / Reflections

Used drive : PIONEER BD-RW BDR-208M Adapter: 1 ID: 0

Read mode : Secure
Utilize accurate stream : Yes
Defeat audio cache : Yes
Make use of C2 pointers : No

Read offset correction : 667
Overread into Lead-In and Lead-Out : No
Fill up missing offset samples with silence : Yes
Delete leading and trailing silent blocks : No
Null samples used in CRC calculations : Yes
Used interface : Native Win32 interface for Win NT & 2000

Used output format : User Defined Encoder
Selected bitrate : 1024 kBit/s
Quality : High
Add ID3 tag : No
Command line compressor : C:Program Files (x86)Exact Audio CopyFlacflac.exe
Additional command line options : -V -8 -T "Date=%year%" -T "Genre=%genre%" %source%

TOC of the extracted CD

Track | Start | Length | Start sector | End sector


1 | 0:00.00 | 4:30.00 | 0 | 20249
2 | 4:30.00 | 4:05.00 | 20250 | 38624
3 | 8:35.00 | 5:23.00 | 38625 | 62849
4 | 13:58.00 | 6:36.00 | 62850 | 92549
5 | 20:34.00 | 6:44.00 | 92550 | 122849
6 | 27:18.00 | 9:46.00 | 122850 | 166799
7 | 37:04.00 | 9:01.00 | 166800 | 207374
8 | 46:05.00 | 7:20.00 | 207375 | 240374
9 | 53:25.00 | 5:53.00 | 240375 | 266849
10 | 59:18.00 | 5:14.00 | 266850 | 290399

Range status and errors

Selected range

Filename C:Usersjean-miniMusicTeeKay - Reflections.wav

Peak level 89.9 %
Extraction speed 4.8 X
Range quality 100.0 %
Test CRC A3301CA4
Copy CRC A3301CA4
Copy OK

No errors occurred

AccurateRip summary

Track 1 accurately ripped (confidence 4) 950117AB
Track 2 accurately ripped (confidence 4) 40C20735
Track 3 accurately ripped (confidence 4) 4B5905D8
Track 4 accurately ripped (confidence 4) 087E5603
Track 5 accurately ripped (confidence 4) 25E227F0
Track 6 accurately ripped (confidence 4) DFE641C9
Track 7 accurately ripped (confidence 4) 14B509A9
Track 8 accurately ripped (confidence 4) EBE56F0D
Track 9 accurately ripped (confidence 4) 9E448CF7
Track 10 accurately ripped (confidence 4) D787A77B

All tracks accurately ripped

End of status report

---- CUETools DB Plugin V2.1.6

[CTDB TOCID: wu98tHUAsAwbxSNatuxNo1X5EJk-] found
Submit result: wu98tHUAsAwbxSNatuxNo1X5EJk- has been confirmed
Track | CTDB Status
1 | (5/5) Accurately ripped
2 | (5/5) Accurately ripped
3 | (5/5) Accurately ripped
4 | (5/5) Accurately ripped
5 | (5/5) Accurately ripped
6 | (5/5) Accurately ripped
7 | (4/5) Accurately ripped
8 | (5/5) Accurately ripped
9 | (5/5) Accurately ripped
10 | (4/5) Accurately ripped, or (1/5) differs in 16246 samples @03:22:58-03:22:59,03:35:53-03:35:54,04:08:50-04:08:51,04:08:71-04:08:72,04:09:17-04:09:18,04:09:39-04:09:40,04:09:60-04:09:61,04:10:06-04:10:07,04:10:27-04:10:28,04:10:48-04:10:49,04:10:69-04:10:71,04:11:16-04:11:17,04:11:37-04:11:38,04:11:58-04:11:59,04:12:04-04:12:05,04:12:25-04:12:26,04:12:68-04:12:69,04:13:14-04:13:15,04:13:35-04:13:36,04:14:02-04:14:03,04:14:23-04:14:25,04:14:45-04:14:46,04:15:12-04:15:13,04:15:33-04:15:34,04:15:54-04:15:56,04:16:01-04:16:02,04:16:22-04:16:23,04:16:43-04:16:44,04:16:64-04:16:65,04:17:10-04:17:11,04:17:31-04:17:33,04:17:53-04:17:54,04:17:74-04:18:00,04:18:20-04:18:21,04:18:41-04:18:42,04:18:62-04:18:64,04:19:09-04:19:10,04:19:30-04:19:31,04:51:49-04:51:51 `

Доп. информация :

скрытый текст

https://www.discogs.com/TeeKay-Featuring-Peter-LaSalle-Reflections/release/561018
image


More at ibit.to
And ibit.uno
And ibit.ws

Comments

Files

TeeKay - Reflections.cue 1.3 kB
TeeKay - Reflections.log 7.9 kB
3.jpg 76 kB
1.jpg 76 kB
2.jpg 123 kB
TeeKay - Reflections.flac 380 MB

Stream

Downloading Seeding TeeKay - Reflections 1991 from to 0 peers.
of
0 b/s / ↗0 b/s