Warning! Use a VPN When Downloading Torrents!
Your IP Address is . Location
Your Internet Provider can see when you download torrents! Hide your IP Address with a VPN
ibit warns: You must use Trust.Zone VPN to hide your torrenting. It's FREE HIDE ME NOW

  • 1
  • 1
  • done
  • (Disco, Euro-Disco, Italo-Disco) [CD] VA - Turbo Disco - Лучшие Хиты Дискотек 3 - 2002, FLAC (tracks+cue), lossless
  • 541 MB
  • vitalikkontr
  • Disco Euro Italo Turbo 2002 FLAC tracks cue lossless
  • Disco, Italo-Disco, Euro-Disco

Description

Various ‎– Turbo Disco - Лучшие Хиты Дискотек 3

image

Жанр : Disco, Euro-Disco, Italo-Disco

Носитель : CD

Страна-производитель диска (релиза) : Ukraine

Год издания : 2002

Издатель (лейбл) : WWW Records, BMG Russia

Номер по каталогу : НН-66CD/02

Аудиокодек : FLAC (*.flac)

Тип рипа : tracks+cue

Продолжительность : 01:15:43

Источник : собственный рип

Наличие сканов в содержимом раздачи : есть

Треклист :
01. Scotch - Disco Band (05:06)
02. Baby's Gang - Challenger (05:19)
03. Patty Ryan - Love Is The Name (03:38)
04. Joy - Japanese Girls (03:30)
05. Jam Tronik - Another Day in Paradise (03:44)
06. Mr. Zivago - Little Russian (04:14)
07. K.B. Caps - Do You Really Need Me (03:43)
08. Ken Laszlo - Mary Ann (03:00)
09. Lian Ross - Fantasy (03:40)
10. Fancy - A Voice In The Dark (04:00)
11. Joy - Gimme Gimme All Of You (03:50)
12. Michael Bedford - Tonight (03:27)
13. Linda Jo Rizzo - I've Got The Night (05:44)
14. Grant Miller - Colder Than Ice (05:33)
15. Mozzart - Jasmin China Girl (02:51)
16. Silent Circle - Megamix (06:13)
17. Gazebo - Masterpiece (04:22)
18. Roger Meno - What My Heart Wanna Say (03:49)

Discogs

https://www.discogs.com/ru/Various-Turbo-Disco-Лучшие-Хиты-Дискотек-3/release/15101784

Лог создания рипа

`Exact Audio Copy V1.5 from 20. February 2020

Отчёт EAC об извлечении, выполненном 26. июня 2020, 18:58

Various Artists / Turbo Disco3

Дисковод: ASUS DRW-24D5MT Adapter: 1 ID: 0

Режим чтения : Достоверность
Использование точного потока : Да
Отключение кэша аудио : Да
Использование указателей C2 : Нет

Коррекция смещения при чтении : 6
Способность читать области Lead-in и Lead-out : Нет
Заполнение пропущенных сэмплов тишиной : Да
Удаление блоков с тишиной в начале и конце : Нет
При вычислениях CRC использовались нулевые сэмплы : Да
Интерфейс : Встроенный Win32-интерфейс для Win NT/2000
Обработка зазоров : Добавлено к предыдущему треку

Выходной формат : Пользовательский кодировщик
Выбранный битрейт : 1024 kBit/s
Качество : Высокий
Добавление ID3-тега : Нет
Утилита сжатия : C:Program Files (x86)Exact Audio CopyFlacflac.exe
Дополнительные параметры : -5 -V -T "ARTIST=%artist%" -T "TITLE=%src%" -T "ALBUM=%albumsrc%" -T "DATE=%year%" -T "TRACKNUMBER=%tracknr%/%numtracks%" -T "GENRE=%genre%" -T "COMMENT=%comment%" %source% -o %dest%

TOC извлечённого CD

Трек | Старт | Длительность | Начальный сектор | Конечный сектор


1 | 0:00.00 | 5:06.12 | 0 | 22961
2 | 5:06.12 | 5:19.25 | 22962 | 46911
3 | 10:25.37 | 3:38.13 | 46912 | 63274
4 | 14:03.50 | 3:30.20 | 63275 | 79044
5 | 17:33.70 | 3:44.41 | 79045 | 95885
6 | 21:18.36 | 4:14.20 | 95886 | 114955
7 | 25:32.56 | 3:43.13 | 114956 | 131693
8 | 29:15.69 | 3:00.69 | 131694 | 145262
9 | 32:16.63 | 3:40.48 | 145263 | 161810
10 | 35:57.36 | 4:00.41 | 161811 | 179851
11 | 39:58.02 | 3:50.50 | 179852 | 197151
12 | 43:48.52 | 3:27.55 | 197152 | 212731
13 | 47:16.32 | 5:44.27 | 212732 | 238558
14 | 53:00.59 | 5:33.33 | 238559 | 263566
15 | 58:34.17 | 2:51.69 | 263567 | 276460
16 | 61:26.11 | 6:13.01 | 276461 | 304436
17 | 67:39.12 | 4:22.22 | 304437 | 324108
18 | 72:01.34 | 3:49.51 | 324109 | 341334

Трек 1

Имя файла C:UsersvitalMusic01 Scotch - Disco Band.wav

Длина предзазора 0:00:02.00

Пиковый уровень 98.8 %
Скорость извлечения 4.8 X
Качество трека 100.0 %
CRC теста 15BBA120
CRC копии 15BBA120
Трек не обнаружен в базе AccurateRip
Копирование... OK

Трек 2

Имя файла C:UsersvitalMusic02 Baby's Gang - Challenger.wav

Длина предзазора 0:00:02.00

Пиковый уровень 98.8 %
Скорость извлечения 5.0 X
Качество трека 99.9 %
CRC теста 02625996
CRC копии 02625996
Трек не обнаружен в базе AccurateRip
Копирование... OK

Трек 3

Имя файла C:UsersvitalMusic03 Patty Ryan - Love Is The Name.wav

Длина предзазора 0:00:02.00

Пиковый уровень 95.9 %
Скорость извлечения 5.6 X
Качество трека 100.0 %
CRC теста A7AE986F
CRC копии A7AE986F
Трек не обнаружен в базе AccurateRip
Копирование... OK

Трек 4

Имя файла C:UsersvitalMusic04 Joy - Japanese Girls.wav

Длина предзазора 0:00:02.00

Пиковый уровень 97.4 %
Скорость извлечения 5.9 X
Качество трека 100.0 %
CRC теста D369FD09
CRC копии D369FD09
Трек не обнаружен в базе AccurateRip
Копирование... OK

Трек 5

Имя файла C:UsersvitalMusic05 Jam Tronik - Another Day in Paradise.wav

Длина предзазора 0:00:02.00

Пиковый уровень 98.6 %
Скорость извлечения 6.3 X
Качество трека 100.0 %
CRC теста 7A95C8D9
CRC копии 7A95C8D9
Трек не обнаружен в базе AccurateRip
Копирование... OK

Трек 6

Имя файла C:UsersvitalMusic06 Mr. Zivago - Little Russian.wav

Длина предзазора 0:00:02.00

Пиковый уровень 91.4 %
Скорость извлечения 5.9 X
Качество трека 99.9 %
CRC теста D9CD643A
CRC копии D9CD643A
Трек не обнаружен в базе AccurateRip
Копирование... OK

Трек 7

Имя файла C:UsersvitalMusic07 K.B. Caps - Do You Really Need Me.wav

Длина предзазора 0:00:02.00

Пиковый уровень 91.7 %
Скорость извлечения 6.9 X
Качество трека 100.0 %
CRC теста 5A8D2B72
CRC копии 5A8D2B72
Трек не обнаружен в базе AccurateRip
Копирование... OK

Трек 8

Имя файла C:UsersvitalMusic08 Ken Laszlo - Mary Ann.wav

Длина предзазора 0:00:02.00

Пиковый уровень 98.8 %
Скорость извлечения 5.9 X
Качество трека 99.9 %
CRC теста D1D8177C
CRC копии D1D8177C
Трек не обнаружен в базе AccurateRip
Копирование... OK

Трек 9

Имя файла C:UsersvitalMusic09 Lian Ross - Fantasy.wav

Длина предзазора 0:00:02.00

Пиковый уровень 57.8 %
Скорость извлечения 7.3 X
Качество трека 100.0 %
CRC теста BE1497CE
CRC копии BE1497CE
Трек не обнаружен в базе AccurateRip
Копирование... OK

Трек 10

Имя файла C:UsersvitalMusic10 Fancy - A Voice In The Dark.wav

Длина предзазора 0:00:02.00

Пиковый уровень 80.5 %
Скорость извлечения 7.6 X
Качество трека 100.0 %
CRC теста 05403A9B
CRC копии 05403A9B
Трек не обнаружен в базе AccurateRip
Копирование... OK

Трек 11

Имя файла C:UsersvitalMusic11 Joy - Gimme Gimme All Of You.wav

Длина предзазора 0:00:02.00

Пиковый уровень 94.0 %
Скорость извлечения 7.8 X
Качество трека 100.0 %
CRC теста 76BD1365
CRC копии 76BD1365
Трек не обнаружен в базе AccurateRip
Копирование... OK

Трек 12

Имя файла C:UsersvitalMusic12 Michael Bedford - Tonight.wav

Длина предзазора 0:00:02.00

Пиковый уровень 83.5 %
Скорость извлечения 7.9 X
Качество трека 100.0 %
CRC теста 4C116AF8
CRC копии 4C116AF8
Трек не обнаружен в базе AccurateRip
Копирование... OK

Трек 13

Имя файла C:UsersvitalMusic13 Linda Jo Rizzo - I've Got The Night.wav

Длина предзазора 0:00:02.00

Пиковый уровень 80.5 %
Скорость извлечения 8.7 X
Качество трека 100.0 %
CRC теста 04F9DA99
CRC копии 04F9DA99
Трек не обнаружен в базе AccurateRip
Копирование... OK

Трек 14

Имя файла C:UsersvitalMusic14 Grant Miller - Colder Than Ice.wav

Длина предзазора 0:00:02.00

Пиковый уровень 91.7 %
Скорость извлечения 9.0 X
Качество трека 100.0 %
CRC теста D0D326D2
CRC копии D0D326D2
Трек не обнаружен в базе AccurateRip
Копирование... OK

Трек 15

Имя файла C:UsersvitalMusic15 Mozzart - Jasmin China Girl.wav

Длина предзазора 0:00:02.00

Пиковый уровень 95.9 %
Скорость извлечения 8.4 X
Качество трека 100.0 %
CRC теста ACEE0736
CRC копии ACEE0736
Трек не обнаружен в базе AccurateRip
Копирование... OK

Трек 16

Имя файла C:UsersvitalMusic16 Silent Circle - Megamix.wav

Длина предзазора 0:00:02.00

Пиковый уровень 83.5 %
Скорость извлечения 9.5 X
Качество трека 100.0 %
CRC теста F5E1946B
CRC копии F5E1946B
Трек не обнаружен в базе AccurateRip
Копирование... OK

Трек 17

Имя файла C:UsersvitalMusic17 Gazebo - Masterpiece.wav

Длина предзазора 0:00:02.00

Пиковый уровень 98.8 %
Скорость извлечения 8.5 X
Качество трека 99.9 %
CRC теста D4FB6D25
CRC копии D4FB6D25
Трек не обнаружен в базе AccurateRip
Копирование... OK

Трек 18

Имя файла C:UsersvitalMusic18 Roger Meno - What My Heart Wanna Say.wav

Длина предзазора 0:00:02.00

Пиковый уровень 95.6 %
Скорость извлечения 9.4 X
Качество трека 100.0 %
CRC теста F4B8909D
CRC копии F4B8909D
Трек не обнаружен в базе AccurateRip
Копирование... OK

Ни одного трека нет в базе AccurateRip

Ошибок не произошло

Конец отчёта

==== Контрольная сумма отчёта 7633ACB1FAAF29C1EB2B40DB3EAD437FF77DC75B9FE2CD0DA7EF05320FA1750E ====

`

Лог проверки качества (Audiochecker)

CD:
image

Файлы Flac:
image

Содержание индексной карты (.CUE)

`REM GENRE Disco
REM DATE 2002
REM DISCID FD11C712
REM COMMENT "ExactAudioCopy v1.5"
PERFORMER "Various Artists"
TITLE "Turbo Disco3"
REM COMPOSER ""
FILE "01 Scotch - Disco Band.wav" WAVE
TRACK 01 AUDIO
TITLE "Scotch - Disco Band"
PERFORMER "Scotch"
REM COMPOSER ""
INDEX 01 00:00:00
TRACK 02 AUDIO
TITLE "Baby's Gang - Challenger"
PERFORMER "Baby's Gang"
REM COMPOSER ""
INDEX 00 05:04:12
FILE "02 Baby's Gang - Challenger.wav" WAVE
INDEX 01 00:00:00
TRACK 03 AUDIO
TITLE "Patty Ryan - Love Is The Name"
PERFORMER "Patty Ryan"
REM COMPOSER ""
INDEX 00 05:17:25
FILE "03 Patty Ryan - Love Is The Name.wav" WAVE
INDEX 01 00:00:00
TRACK 04 AUDIO
TITLE "Joy - Japanese Girls"
PERFORMER "Joy"
REM COMPOSER ""
INDEX 00 03:36:13
FILE "04 Joy - Japanese Girls.wav" WAVE
INDEX 01 00:00:00
TRACK 05 AUDIO
TITLE "Jam Tronik - Another Day in Paradise"
PERFORMER "Jam Tronik"
REM COMPOSER ""
INDEX 00 03:28:20
FILE "05 Jam Tronik - Another Day in Paradise.wav" WAVE
INDEX 01 00:00:00
TRACK 06 AUDIO
TITLE "Mr. Zivago - Little Russian"
PERFORMER "Mr. Zivago"
REM COMPOSER ""
INDEX 00 03:42:41
FILE "06 Mr. Zivago - Little Russian.wav" WAVE
INDEX 01 00:00:00
TRACK 07 AUDIO
TITLE "K.B. Caps - Do You Really Need Me"
PERFORMER "K.B. Caps"
REM COMPOSER ""
INDEX 00 04:12:20
FILE "07 K.B. Caps - Do You Really Need Me.wav" WAVE
INDEX 01 00:00:00
TRACK 08 AUDIO
TITLE "Ken Laszlo - Mary Ann"
PERFORMER "Ken Laszlo"
REM COMPOSER ""
INDEX 00 03:41:13
FILE "08 Ken Laszlo - Mary Ann.wav" WAVE
INDEX 01 00:00:00
TRACK 09 AUDIO
TITLE "Lian Ross - Fantasy"
PERFORMER "Lian Ross"
REM COMPOSER ""
INDEX 00 02:58:69
FILE "09 Lian Ross - Fantasy.wav" WAVE
INDEX 01 00:00:00
TRACK 10 AUDIO
TITLE "Fancy - A Voice In The Dark"
PERFORMER "Fancy"
REM COMPOSER ""
INDEX 00 03:38:48
FILE "10 Fancy - A Voice In The Dark.wav" WAVE
INDEX 01 00:00:00
TRACK 11 AUDIO
TITLE "Joy - Gimme Gimme All Of You"
PERFORMER "Joy"
REM COMPOSER ""
INDEX 00 03:58:41
FILE "11 Joy - Gimme Gimme All Of You.wav" WAVE
INDEX 01 00:00:00
TRACK 12 AUDIO
TITLE "Michael Bedford - Tonight"
PERFORMER "Michael Bedford"
REM COMPOSER ""
INDEX 00 03:48:50
FILE "12 Michael Bedford - Tonight.wav" WAVE
INDEX 01 00:00:00
TRACK 13 AUDIO
TITLE "Linda Jo Rizzo - I've Got The Night"
PERFORMER "Linda Jo Rizzo"
REM COMPOSER ""
INDEX 00 03:25:55
FILE "13 Linda Jo Rizzo - I've Got The Night.wav" WAVE
INDEX 01 00:00:00
TRACK 14 AUDIO
TITLE "Grant Miller - Colder Than Ice"
PERFORMER "Grant Miller"
REM COMPOSER ""
INDEX 00 05:42:27
FILE "14 Grant Miller - Colder Than Ice.wav" WAVE
INDEX 01 00:00:00
TRACK 15 AUDIO
TITLE "Mozzart - Jasmin China Girl"
PERFORMER "Mozzart"
REM COMPOSER ""
INDEX 00 05:31:33
FILE "15 Mozzart - Jasmin China Girl.wav" WAVE
INDEX 01 00:00:00
TRACK 16 AUDIO
TITLE "Silent Circle - Megamix"
PERFORMER "Silent Circle"
REM COMPOSER ""
INDEX 00 02:49:69
FILE "16 Silent Circle - Megamix.wav" WAVE
INDEX 01 00:00:00
TRACK 17 AUDIO
TITLE "Gazebo - Masterpiece"
PERFORMER "Gazebo"
REM COMPOSER ""
INDEX 00 06:11:01
FILE "17 Gazebo - Masterpiece.wav" WAVE
INDEX 01 00:00:00
TRACK 18 AUDIO
TITLE "Roger Meno - What My Heart Wanna Say"
PERFORMER "Roger Meno"
REM COMPOSER ""
INDEX 00 04:20:22
FILE "18 Roger Meno - What My Heart Wanna Say.wav" WAVE
INDEX 01 00:00:00

`

Скриншот спектра частот

image image

Скриншот

image imageimageimage


More at ibit.to
And ibit.uno
And ibit.am
And ibit.ws

Comments

3 weeks ago

пожалуй скачаю, пока открыта дискуссия на важные темы...

3 weeks ago

DJ Stakan писал(а): 79665711Поскольку переделывать рип при помощи EAC вы не планируете, то в оформление раздачи необходимо поместить лог проверки качества (Audiochecker, AuCDtect Task Manager или CUE Corrector).Это необходимое условие для проставления сомнительного статуса раздаче, выполненной любым риппером, кроме, кроме EAC и XLD. Добавил - лог проверки качества

3 weeks ago

Тайминг треков не проставлен. Вообще, последнее время раздачи грешат отсутствием времени продолжительности треков. Конечно, можно посмотреть в логе, но это не особо удобно. И, интересно, какой болван на дискогс релиз заносил, ошибок понаделал, которые и тут теперь тоже.

3 weeks ago

Тайминг треков исправил

3 weeks ago

В связи с запретом использовать сторонние программы кодировщики кроме EAC и XLD я вынужден был перекодировать свой CD альбом и перелазить торрент. Ребят приношу за ранее свои извинения и прошу всех скачавших перекачать торрент!

2 weeks ago

vitalikkontr писал(а): 79668144Тайминг треков исправил Супер! И ошибки уже тогда тоже: 13. Linda Jo Rizzo - L'v Got The Night - I'v 18. Roger Meno - Love Really Hurts Without You1 - во-первых, цифра 1 тут ни к чему. Во-вторых у Roger Meno нет такой песни. Не скачивал, но это либо Bad Boys Blue или Billy Ocean (второе маловероятно ), либо песня Roger Meno с другим названием. Судя по таймингу, Bad Boys Blue скорее всего.

2 weeks ago

Ясно, почему 2 дня ничего не скачивается, уже после этого vitalikkontr писал(а): 79668478прошу всех скачавших перекачать торрент! оказывается еще раз убил торрент

2 weeks ago

alex81-7 писал(а): 79676073Ясно, почему 2 дня ничего не скачивается, уже после этого vitalikkontr писал(а): 79668478прошу всех скачавших перекачать торрент! оказывается еще раз убил торрент а я тут причём что им не нравится программа EZ CD Audio Converter?- требуют кодировку через Exact Audio Copy!

2 weeks ago

К сожалению, и на этот раз без ошибок не обошлось.Не понятно зачем, но вы выбрали другой метод обработки зазоров: Цитата: Обработка зазоров: Добавлено к следующему треку Вместо: Цитата: Обработка зазоров: Добавлено к предыдущему треку В результате, к началу каждого трека у вас добавилось по 2 секунды тишины, и как итог, DISCID в cue не соответствует фактическому вычисленному CDDBId файлов: Цитата: CDDBId mismatch: FD11C712 vs 0911C712 Очень странно, что вы так сделали, потому как, например, в раздаче ATB у вас с зазорами всё верно.Вообще, "Добавлено к следующему треку" выбирается только если предзазор первого трека больше 2-х секунд, не содержит тишины, не является скрытым музыкальным треком, а у остальных треков зазоры отсутствуют. Но это не ваш случай. Поэтому исправьте, пожалуйста.

2 weeks ago

я понял , случайно вышло , сейчас переделаю (прошу понять и простить)

Files

Stream

Downloading Seeding (Disco, Euro-Disco, Italo-Disco) [CD] VA - Turbo Disco - Лучшие Хиты Дискотек 3 - 2002, FLAC (tracks+cue), lossless from to 0 peers.
of
0 b/s / ↗0 b/s