• 0
  • 0
  • done
Anonymous Download
Warning! Use a VPN When Downloading Torrents!
Your IP Address is ,
Your Internet Provider can see when you download torrents! Hide your IP ADDRESS with a VPN
We strongly recommend hide.me VPN to hide your torrenting. It's FREE!
DOWNLOAD VPN

Description

image

Erroll Garner Trio – 1950-1951

Жанр : Bop

Год издания : 1996

Издатель (лейбл) : Giants Of Jazz

Номер по каталогу : CD 53216

Аудиокодек : FLAC (*.flac)

Тип рипа : image+.cue

Битрейт аудио : lossless

Продолжительность : 61:46

Rip by papa1954

Наличие сканов в содержимом раздачи : да

Треклист :
01. Lover

(3:13)

  1. When You're Smiling

(3:47)

  1. Laura

(2:47)

  1. Poor Butterfly

(3:09)

  1. I Cover The Waterfront

(3:40)

  1. How High The Moon

(3:26)

  1. The Petite Waltz

(2:37)

  1. My Heart Stood Still

(4:17)

  1. People Will Say We're In Love

(3:52)

  1. Indiana

(2:08)

  1. I'm In The Mood For Love

(3:39)

  1. Long Ago And Far Away

(2:40)

  1. Honeysuckle Rose

(3:25)

  1. I Can't Get Started

(2:59)

  1. Spring Is Here

(2:27)

  1. Penthouse Serenade

(2:58)

  1. I Don't Know Why

(3:29)

  1. It Could Happen To You

(3:47)

  1. When Johnny Comes Marching Home

(3:26)

   [image

GIANTS OF JAZZ

на трекере](viewtopic.php?p=15620888)
 

Лог создания рипа

`Exact Audio Copy V0.99 prebeta 5 from 4. May 2009

EAC extraction logfile from 13. May 2011, 11:42

Erroll Garner / Erroll Garner Trio (1950-1951)

Used drive : PIONEER DVD-RW DVR-111D Adapter: 1 ID: 0

Read mode : Secure
Utilize accurate stream : Yes
Defeat audio cache : Yes
Make use of C2 pointers : No

Read offset correction : 48
Overread into Lead-In and Lead-Out : No
Fill up missing offset samples with silence : Yes
Delete leading and trailing silent blocks : No
Null samples used in CRC calculations : Yes
Used interface : Native Win32 interface for Win NT & 2000

Used output format : Internal WAV Routines
Sample format : 44.100 Hz; 16 Bit; Stereo

TOC of the extracted CD

Track | Start | Length | Start sector | End sector


1 | 0:00.33 | 3:13.05 | 33 | 14512
2 | 3:13.38 | 3:46.57 | 14513 | 31519
3 | 7:00.20 | 2:46.40 | 31520 | 44009
4 | 9:46.60 | 3:09.05 | 44010 | 58189
5 | 12:55.65 | 3:40.30 | 58190 | 74719
6 | 16:36.20 | 3:26.00 | 74720 | 90169
7 | 20:02.20 | 2:37.23 | 90170 | 101967
8 | 22:39.43 | 4:17.25 | 101968 | 121267
9 | 26:56.68 | 3:51.70 | 121268 | 138662
10 | 30:48.63 | 2:08.05 | 138663 | 148267
11 | 32:56.68 | 3:39.12 | 148268 | 164704
12 | 36:36.05 | 2:39.53 | 164705 | 176682
13 | 39:15.58 | 3:25.25 | 176683 | 192082
14 | 42:41.08 | 2:59.17 | 192083 | 205524
15 | 45:40.25 | 2:26.58 | 205525 | 216532
16 | 48:07.08 | 2:57.57 | 216533 | 229864
17 | 51:04.65 | 3:29.03 | 229865 | 245542
18 | 54:33.68 | 3:47.00 | 245543 | 262567
19 | 58:20.68 | 3:26.00 | 262568 | 278017

Range status and errors

Selected range

Filename C:РИПЫErroll Garner - Erroll Garner Trio (1950-1951).wav

Peak level 98.7 %
Range quality 100.0 %
Test CRC 55506C65
Copy CRC 55506C65
Copy OK

No errors occurred

AccurateRip summary

Track 1 cannot be verified as accurate (confidence 1) [6EC1C7EC], AccurateRip returned [A1D9B67C]
Track 2 cannot be verified as accurate (confidence 1) [42C01785], AccurateRip returned [FB3AFF2D]
Track 3 cannot be verified as accurate (confidence 1) [51113F6E], AccurateRip returned [293A2A1B]
Track 4 cannot be verified as accurate (confidence 1) [31502BF0], AccurateRip returned [ED3D72C7]
Track 5 cannot be verified as accurate (confidence 1) [F14D6EAA], AccurateRip returned [D21C0472]
Track 6 cannot be verified as accurate (confidence 1) [4F0B77D7], AccurateRip returned [FCD2DEA4]
Track 7 cannot be verified as accurate (confidence 1) [51B247E6], AccurateRip returned [719E4B05]
Track 8 cannot be verified as accurate (confidence 1) [A7C5A8F7], AccurateRip returned [1B470926]
Track 9 cannot be verified as accurate (confidence 1) [7FD59094], AccurateRip returned [5ACA48B9]
Track 10 cannot be verified as accurate (confidence 1) [E5264514], AccurateRip returned [4CEDC2EB]
Track 11 cannot be verified as accurate (confidence 1) [7BCD2ED4], AccurateRip returned [44CCD24B]
Track 12 cannot be verified as accurate (confidence 1) [24E051E0], AccurateRip returned [F5440B1C]
Track 13 cannot be verified as accurate (confidence 1) [30B99013], AccurateRip returned [F1C5145B]
Track 14 cannot be verified as accurate (confidence 1) [C03C1073], AccurateRip returned [00D5A87A]
Track 15 cannot be verified as accurate (confidence 1) [35694DEC], AccurateRip returned [D0ACDA53]
Track 16 cannot be verified as accurate (confidence 1) [DB8DA4BB], AccurateRip returned [BFCCE20F]
Track 17 cannot be verified as accurate (confidence 1) [BE28F993], AccurateRip returned [432FDE02]
Track 18 cannot be verified as accurate (confidence 1) [1EE85286], AccurateRip returned [3F265655]
Track 19 cannot be verified as accurate (confidence 1) [9ABC126A], AccurateRip returned [256687A4]

No tracks could be verified as accurate
You may have a different pressing from the one(s) in the database

End of status report `

Содержание индексной карты (.CUE)

REM GENRE Jazz REM DATE 1996 REM DISCID 300E7A13 REM COMMENT "ExactAudioCopy v0.99pb5" PERFORMER "Erroll Garner" TITLE "Erroll Garner Trio (1950-1951)" FILE "Erroll Garner - Erroll Garner Trio (1950-1951).flac" WAVE TRACK 01 AUDIO TITLE "Lover" PERFORMER "Erroll Garner" INDEX 00 00:00:00 INDEX 01 00:00:33 TRACK 02 AUDIO TITLE "When You're Smiling" PERFORMER "Erroll Garner" INDEX 01 03:13:38 TRACK 03 AUDIO TITLE "Laura" PERFORMER "Erroll Garner" INDEX 01 07:00:20 TRACK 04 AUDIO TITLE "Poor Butterfly" PERFORMER "Erroll Garner" INDEX 01 09:46:60 TRACK 05 AUDIO TITLE "I Cover The Waterfront" PERFORMER "Erroll Garner" INDEX 01 12:55:65 TRACK 06 AUDIO TITLE "How High The Moon" PERFORMER "Erroll Garner" INDEX 01 16:36:20 TRACK 07 AUDIO TITLE "The Petite Waltz" PERFORMER "Erroll Garner" INDEX 01 20:02:20 TRACK 08 AUDIO TITLE "My Heart Stood Still" PERFORMER "Erroll Garner" INDEX 01 22:39:43 TRACK 09 AUDIO TITLE "People Will Say We're In Love" PERFORMER "Erroll Garner" INDEX 01 26:56:68 TRACK 10 AUDIO TITLE "Indiana" PERFORMER "Erroll Garner" INDEX 01 30:48:63 TRACK 11 AUDIO TITLE "I'm In The Mood For Love" PERFORMER "Erroll Garner" INDEX 01 32:56:68 TRACK 12 AUDIO TITLE "Long Ago And Far Away" PERFORMER "Erroll Garner" INDEX 01 36:36:05 TRACK 13 AUDIO TITLE "Honeysuckle Rose" PERFORMER "Erroll Garner" INDEX 01 39:15:58 TRACK 14 AUDIO TITLE "I Can't Get Started" PERFORMER "Erroll Garner" INDEX 01 42:41:08 TRACK 15 AUDIO TITLE "Spring Is Here" PERFORMER "Erroll Garner" INDEX 01 45:40:25 TRACK 16 AUDIO TITLE "Penthouse Serenade" PERFORMER "Erroll Garner" INDEX 01 48:07:08 TRACK 17 AUDIO TITLE "I Don't Know Why" PERFORMER "Erroll Garner" INDEX 01 51:04:65 TRACK 18 AUDIO TITLE "It Could Happen To You" PERFORMER "Erroll Garner" INDEX 01 54:33:68 TRACK 19 AUDIO TITLE "When Johnny Comes Marching Home" PERFORMER "Erroll Garner" INDEX 01 58:20:68


More at ibit.to
And ibit.uno
And ibit.am
And ibit.ws

Comments

Files

Erroll Garner - Erroll Garner Trio (1950-1951).flac 232 MB
Scans/booklet out.jpg 5.1 MB
Scans/booklet in.jpg 4.6 MB
Scans/back.jpg 1.6 MB
Scans/cd.jpg 1.4 MB
folder.jpg 185 kB
Erroll Garner - Erroll Garner Trio (1950-1951).log 4.4 kB
Erroll Garner - Erroll Garner Trio (1950-1951).accurip 2.6 kB
Erroll Garner - Erroll Garner Trio (1950-1951).cue 2.2 kB

Stream

Downloading Seeding GoJ 53216 - Erroll Garner - Erroll Garner Trio (1950-1951) from to 0 peers.
of
0 b/s / ↗0 b/s