• 13
  • 1
  • done
Sponsored Download

Description

Arukoru-Tate-no-Yuusha-no-Nariagari-The-Rising-of-the-Shield.png

Arukoru-Tate-no-Yuusha-no-Nariagari-The-Rising-of-the-Shield.png

Arukoru-Tate-no-Yuusha-no-Nariagari-The-Rising-of-the-Shield.png

Format : Matroska Format version : Version 4 File size : 538 MiB Duration : 47 min 21 s Overall bit rate : 1 588 kb/s Encoded date : UTC 2019-01-10 00:44:49 Writing application : mkvmerge v29.0.0 ('Like It Or Not') 64-bit Writing library : libebml v1.3.6 + libmatroska v1.4.9 / Lavf58.20.100

Video ID : 1 Format : HEVC Format/Info : High Efficiency Video Coding Format profile : Main 10@L4@Main Codec ID : V_MPEGH/ISO/HEVC Duration : 47 min 20 s Bit rate : 1 457 kb/s Width : 1 920 pixels Height : 1 080 pixels Display aspect ratio : 16:9 Frame rate mode : Constant Frame rate : 23.976 (24000/1001) FPS Color space : YUV Chroma subsampling : 4:2:0 Bit depth : 10 bits Bits/(Pixel*Frame) : 0.029 Stream size : 493 MiB (92%) Writing library : x265 2.9:[Windows][GCC 7.1.0][64 bit] 10bit

Default : Yes Forced : No Color range : Limited Color primaries : BT.709 Transfer characteristics : BT.709 Matrix coefficients : BT.709

Audio ID : 2 Format : AAC LC Format/Info : Advanced Audio Codec Low Complexity Codec ID : A_AAC-2 Duration : 47 min 20 s Bit rate : 128 kb/s Channel(s) : 2 channels Channel layout : L R Sampling rate : 44.1 kHz Frame rate : 43.066 FPS (1024 SPF) Compression mode : Lossy Stream size : 43.3 MiB (8%) Language : Japanese Default : Yes Forced : No

Text #1 ID : 3 Format : ASS Codec ID : S_TEXT/ASS Codec ID/Info : Advanced Sub Station Alpha Duration : 46 min 20 s Bit rate : 158 b/s Count of elements : 784 Compression mode : Lossless Stream size : 53.7 KiB (0%) Language : English Default : Yes Forced : Yes

Text #2 ID : 4 Format : ASS Codec ID : S_TEXT/ASS Codec ID/Info : Advanced Sub Station Alpha Duration : 46 min 20 s Bit rate : 204 b/s Count of elements : 789 Compression mode : Lossless Stream size : 69.5 KiB (0%) Language : Arabic Default : No Forced : No

Text #3 ID : 5 Format : ASS Codec ID : S_TEXT/ASS Codec ID/Info : Advanced Sub Station Alpha Duration : 46 min 20 s Bit rate : 158 b/s Count of elements : 730 Compression mode : Lossless Stream size : 53.8 KiB (0%) Language : German Default : No Forced : No

Text #4 ID : 6 Format : ASS Codec ID : S_TEXT/ASS Codec ID/Info : Advanced Sub Station Alpha Duration : 46 min 21 s Bit rate : 132 b/s Count of elements : 714 Compression mode : Lossless Stream size : 44.9 KiB (0%) Language : Spanish Default : No Forced : No

Text #5 ID : 7 Format : ASS Codec ID : S_TEXT/ASS Codec ID/Info : Advanced Sub Station Alpha Duration : 46 min 21 s Bit rate : 131 b/s Count of elements : 714 Compression mode : Lossless Stream size : 44.7 KiB (0%) Title : Mexico Language : Spanish Default : No Forced : No

Text #6 ID : 8 Format : ASS Codec ID : S_TEXT/ASS Codec ID/Info : Advanced Sub Station Alpha Duration : 46 min 20 s Bit rate : 154 b/s Count of elements : 698 Compression mode : Lossless Stream size : 52.6 KiB (0%) Language : French Default : No Forced : No

Text #7 ID : 9 Format : ASS Codec ID : S_TEXT/ASS Codec ID/Info : Advanced Sub Station Alpha Duration : 46 min 20 s Bit rate : 171 b/s Count of elements : 793 Compression mode : Lossless Stream size : 58.3 KiB (0%) Language : Italian Default : No Forced : No

Text #8 ID : 10 Format : ASS Codec ID : S_TEXT/ASS Codec ID/Info : Advanced Sub Station Alpha Duration : 46 min 20 s Bit rate : 155 b/s Count of elements : 783 Compression mode : Lossless Stream size : 52.9 KiB (0%) Language : Portuguese Default : No Forced : No

Text #9 ID : 11 Format : ASS Codec ID : S_TEXT/ASS Codec ID/Info : Advanced Sub Station Alpha Duration : 46 min 20 s Bit rate : 282 b/s Count of elements : 868 Compression mode : Lossless Stream size : 95.9 KiB (0%) Language : Russian Default : No Forced : No

Source:

Crunchyroll WEB-DL


More at ibit.to
And ibit.uno
And ibit.ws

Comments

7 months ago

Dub for this has been delayed. Oh man :-(

7 months ago

Well, finally appeared the norm...thank Arukoru. P.S - Another would find Kakegurui 2 season (HEVEC x265).

6 months ago

Thank you, great quality in a small file size! Same goes for all the other episode releases, just leaving the comment here.

Files

[Arukoru] Tate no Yuusha no Nariagari (The Rising of the Shield Hero) - Episode 01 - The Shield Hero [1080p x265 10bit WEB Multi-Sub AAC].mkv 538 MB

Stream

Downloading Seeding [Arukoru] Tate no Yuusha no Nariagari (The Rising of the Shield Hero) - Episode 01 - The Shield Hero [1080p x265 10bit WEB Multi-Sub AAC] from to 0 peers.
of
0 b/s / ↗0 b/s