• 9
  • 2
  • done
Sponsored Download

Description

Episode-01-The-End-of-the-Beginning-and-the-Beginning-of-the-E.png

Episode-02-Reunion-with-the-Witch-mkv-snapshot-06-24-2019-02.png

Episode-03-Starting-Life-from-Zero-in-Another-World-mkv-snapsh.png

Format : Matroska Format version : Version 4 / Version 2 File size : 866 MiB Duration : 49 min 10 s Overall bit rate : 2 461 kb/s Movie name : ReZeroS1P1_D1 Encoded date : UTC 2019-02-21 05:49:49 Writing application : mkvmerge v29.0.0 ('Like It Or Not') 64-bit Writing library : libebml v1.3.6 + libmatroska v1.4.9 / Lavf58.20.100

Video ID : 1 Format : HEVC Format/Info : High Efficiency Video Coding Format profile : Main 10@L4@Main Codec ID : V_MPEGH/ISO/HEVC Duration : 49 min 10 s Bit rate : 2 072 kb/s Width : 1 920 pixels Height : 1 080 pixels Display aspect ratio : 16:9 Frame rate mode : Constant Frame rate : 23.976 (24000/1001) FPS Color space : YUV Chroma subsampling : 4:2:0 Bit depth : 10 bits Bits/(Pixel*Frame) : 0.042 Stream size : 729 MiB (84%) Writing library : x265 2.9:[Windows][GCC 7.1.0][64 bit] 10bit Encoding settings : cpuid=1111039 / frame-threads=2 / numa-pools=4 / wpp / no-pmode / no-pme / no-psnr / no-ssim / log-level=2 / input-csp=1 / input-res=1920x1080 / interlace=0 / total-frames=0 / level-idc=0 / high-tier=1 / uhd-bd=0 / ref=4 / no-allow-non-conformance / no-repeat-headers / annexb / no-aud / no-hrd / info / hash=0 / no-temporal-layers / open-gop / min-keyint=24 / keyint=240 / gop-lookahead=0 / bframes=4 / b-adapt=2 / b-pyramid / bframe-bias=0 / rc-lookahead=25 / lookahead-slices=4 / scenecut=40 / radl=0 / no-intra-refresh / ctu=64 / min-cu-size=8 / rect / no-amp / max-tu-size=32 / tu-inter-depth=1 / tu-intra-depth=1 / limit-tu=0 / rdoq-level=2 / dynamic-rd=0.00 / no-ssim-rd / signhide / no-tskip / nr-intra=0 / nr-inter=0 / no-constrained-intra / strong-intra-smoothing / max-merge=3 / limit-refs=3 / limit-modes / me=3 / subme=3 / merange=57 / temporal-mvp / weightp / no-weightb / no-analyze-src-pics / deblock=0:0 / sao / no-sao-non-deblock / rd=4 / no-early-skip / rskip / no-fast-intra / no-tskip-fast / no-cu-lossless / no-b-intra / no-splitrd-skip / rdpenalty=0 / psy-rd=2.00 / psy-rdoq=1.00 / no-rd-refine / no-lossless / cbqpoffs=0 / crqpoffs=0 / rc=crf / crf=19.0 / qcomp=0.60 / qpstep=4 / stats-write=0 / stats-read=0 / ipratio=1.40 / pbratio=1.30 / aq-mode=1 / aq-strength=1.00 / cutree / zone-count=0 / no-strict-cbr / qg-size=32 / no-rc-grain / qpmax=69 / qpmin=0 / no-const-vbv / sar=1 / overscan=0 / videoformat=5 / range=0 / colorprim=1 / transfer=1 / colormatrix=1 / chromaloc=0 / display-window=0 / max-cll=0,0 / min-luma=0 / max-luma=1023 / log2-max-poc-lsb=8 / vui-timing-info / vui-hrd-info / slices=1 / no-opt-qp-pps / no-opt-ref-list-length-pps / no-multi-pass-opt-rps / scenecut-bias=0.05 / no-opt-cu-delta-qp / no-aq-motion / no-hdr / no-hdr-opt / no-dhdr10-opt / no-idr-recovery-sei / analysis-reuse-level=5 / scale-factor=0 / refine-intra=0 / refine-inter=0 / refine-mv=0 / no-limit-sao / ctu-info=0 / no-lowpass-dct / refine-mv-type=0 / copy-pic=1 / max-ausize-factor=1.0 / no-dynamic-refine / no-single-sei Default : Yes Forced : No Color range : Limited Color primaries : BT.709 Transfer characteristics : BT.709 Matrix coefficients : BT.709

Audio #1 ID : 3 Format : AAC Format/Info : Advanced Audio Codec Format profile : LC Codec ID : A_AAC-2 Duration : 49 min 10 s Bit rate : 186 kb/s Channel(s) : 2 channels Channel positions : Front: L R Sampling rate : 48.0 kHz Frame rate : 46.875 FPS (1024 SPF) Compression mode : Lossy Delay relative to video : 9 ms Stream size : 65.4 MiB (8%) Language : English Default : Yes Forced : No

Audio #2 ID : 4 Format : AAC Format/Info : Advanced Audio Codec Format profile : LC Codec ID : A_AAC-2 Duration : 49 min 9 s Bit rate : 185 kb/s Channel(s) : 2 channels Channel positions : Front: L R Sampling rate : 48.0 kHz Frame rate : 46.875 FPS (1024 SPF) Compression mode : Lossy Delay relative to video : 9 ms Stream size : 65.0 MiB (8%) Language : Japanese Default : No Forced : No

Text ID : 2 Format : PGS Muxing mode : zlib Codec ID : S_HDMV/PGS Codec ID/Info : Picture based subtitle format used on BDs/HD-DVDs Duration : 49 min 2 s Bit rate : 52.1 kb/s Count of elements : 1596 Stream size : 18.3 MiB (2%) Language : English Default : No Forced : No

Menu 00:00:00.000 : :Chapter 1 00:02:31.026 : :Chapter 2 00:13:29.684 : :Chapter 3 00:25:04.837 : :Chapter 4 00:34:48.420 : :Chapter 5 00:47:32.600 : :Chapter 6

Source: USBD

704400014550-anime-rezero-starting-life-in-another-world-season.jpg704400014581-animerezero-starting-life-in-another-world-season-1.jpg


More at ibit.to
And ibit.uno
And ibit.ws

Comments

3 months ago

Thanks! :)

3 months ago

Awesome! Are you going to release the extras aswell?

3 months ago

@Rizzy I don't plan to

3 months ago

is this the ova or the espisodes from the anime in blu ray quality?

3 months ago

@Ezequiel13man episodes from the anime in blu-ray quality

3 months ago

Nice releases, thanks Aru! :]

3 months ago

Ohh nice, thank you

3 months ago

Thank you! My bro only watches Dubs been wanting to shown him the whole Anime.

3 months ago

I've been looking for one with great dual audio and pgs forever can you possibly release the signs op/ed sub files too? It would help allot. @Arukoru

3 months ago

@Bluegrave the signs/songs subs are hardcoded on this, this is the last upload I'm doing that but they are there, in the future they will just be default subs

3 months ago

@Arukoru !!! Ah okay TYSM for that info and the upload! :)

3 months ago

why not JPBD? USBD is shit in this show

3 months ago

@rozee I don't live in Japan so I don't have access to the JPBD, you still have japanese audio tho

Files

[Arukoru] Re Zero - Starting Life in Another World (Re Zero kara Hajimeru Isekai Seikatsu) [1080p x265 10bit BD Dual Audio AAC]/Episode 01 - The End o 866 MB
[Arukoru] Re Zero - Starting Life in Another World (Re Zero kara Hajimeru Isekai Seikatsu) [1080p x265 10bit BD Dual Audio AAC]/Episode 02 - Reunion w 479 MB
[Arukoru] Re Zero - Starting Life in Another World (Re Zero kara Hajimeru Isekai Seikatsu) [1080p x265 10bit BD Dual Audio AAC]/Episode 03 - Starting 466 MB
[Arukoru] Re Zero - Starting Life in Another World (Re Zero kara Hajimeru Isekai Seikatsu) [1080p x265 10bit BD Dual Audio AAC]/Episode 04 - The Happy 441 MB
[Arukoru] Re Zero - Starting Life in Another World (Re Zero kara Hajimeru Isekai Seikatsu) [1080p x265 10bit BD Dual Audio AAC]/Episode 05 - The Morni 403 MB
[Arukoru] Re Zero - Starting Life in Another World (Re Zero kara Hajimeru Isekai Seikatsu) [1080p x265 10bit BD Dual Audio AAC]/Episode 06 - The Sound 464 MB
[Arukoru] Re Zero - Starting Life in Another World (Re Zero kara Hajimeru Isekai Seikatsu) [1080p x265 10bit BD Dual Audio AAC]/Episode 07 - Natsuki S 515 MB
[Arukoru] Re Zero - Starting Life in Another World (Re Zero kara Hajimeru Isekai Seikatsu) [1080p x265 10bit BD Dual Audio AAC]/Episode 08 - I Cried, 456 MB
[Arukoru] Re Zero - Starting Life in Another World (Re Zero kara Hajimeru Isekai Seikatsu) [1080p x265 10bit BD Dual Audio AAC]/Episode 09 - The Meani 430 MB
[Arukoru] Re Zero - Starting Life in Another World (Re Zero kara Hajimeru Isekai Seikatsu) [1080p x265 10bit BD Dual Audio AAC]/Episode 10 - Fanatical 591 MB
[Arukoru] Re Zero - Starting Life in Another World (Re Zero kara Hajimeru Isekai Seikatsu) [1080p x265 10bit BD Dual Audio AAC]/Episode 11 - Rem.mkv 599 MB
[Arukoru] Re Zero - Starting Life in Another World (Re Zero kara Hajimeru Isekai Seikatsu) [1080p x265 10bit BD Dual Audio AAC]/Episode 12 - Return to 404 MB
[Arukoru] Re Zero - Starting Life in Another World (Re Zero kara Hajimeru Isekai Seikatsu) [1080p x265 10bit BD Dual Audio AAC]/Episode 13 - Self-Proc 293 MB
[Arukoru] Re Zero - Starting Life in Another World (Re Zero kara Hajimeru Isekai Seikatsu) [1080p x265 10bit BD Dual Audio AAC]/Episode 14 - The Sickn 330 MB
[Arukoru] Re Zero - Starting Life in Another World (Re Zero kara Hajimeru Isekai Seikatsu) [1080p x265 10bit BD Dual Audio AAC]/Episode 15 - The Outsi 423 MB
[Arukoru] Re Zero - Starting Life in Another World (Re Zero kara Hajimeru Isekai Seikatsu) [1080p x265 10bit BD Dual Audio AAC]/Episode 16 - The Greed 301 MB
[Arukoru] Re Zero - Starting Life in Another World (Re Zero kara Hajimeru Isekai Seikatsu) [1080p x265 10bit BD Dual Audio AAC]/Episode 17 - Disgrace 396 MB
[Arukoru] Re Zero - Starting Life in Another World (Re Zero kara Hajimeru Isekai Seikatsu) [1080p x265 10bit BD Dual Audio AAC]/Episode 18 - From Zero 453 MB
[Arukoru] Re Zero - Starting Life in Another World (Re Zero kara Hajimeru Isekai Seikatsu) [1080p x265 10bit BD Dual Audio AAC]/Episode 19 - Battle Ag 369 MB
[Arukoru] Re Zero - Starting Life in Another World (Re Zero kara Hajimeru Isekai Seikatsu) [1080p x265 10bit BD Dual Audio AAC]/Episode 20 - Wilhelm v 483 MB
[Arukoru] Re Zero - Starting Life in Another World (Re Zero kara Hajimeru Isekai Seikatsu) [1080p x265 10bit BD Dual Audio AAC]/Episode 21 - A Wager T 350 MB
[Arukoru] Re Zero - Starting Life in Another World (Re Zero kara Hajimeru Isekai Seikatsu) [1080p x265 10bit BD Dual Audio AAC]/Episode 22 - A Flash o 370 MB
[Arukoru] Re Zero - Starting Life in Another World (Re Zero kara Hajimeru Isekai Seikatsu) [1080p x265 10bit BD Dual Audio AAC]/Episode 23 - Nefarious 362 MB
[Arukoru] Re Zero - Starting Life in Another World (Re Zero kara Hajimeru Isekai Seikatsu) [1080p x265 10bit BD Dual Audio AAC]/Episode 24 - The Self- 400 MB
[Arukoru] Re Zero - Starting Life in Another World (Re Zero kara Hajimeru Isekai Seikatsu) [1080p x265 10bit BD Dual Audio AAC]/Episode 25 - That`s Al 476 MB

Stream

Downloading Seeding [Arukoru] Re:Zero - Starting Life in Another World (Re:Zero kara Hajimeru Isekai Seikatsu) [1080p x265 10bit BD Dual Audio AAC] from to 0 peers.
of
0 b/s / ↗0 b/s