• 0
  • 0
  • done
Sponsored Download
  • [Anime Land] One Punch Man OVA 1~6-END (BDRip 720p Hi10P QAAC) RAW
  • 1.7 GB
  • an-land
  • Anime Land Punch Man OVA END BDRip 720p Hi10P QAAC RAW
  • Anime - Raw

Description

http://an-land.net/vb

Image

please tell me if there is any error, thank you!

~.~.~.~.~.~.~.~.~.~.~.~.~.~.~.~.~.~.~.~

Source: 6xBD50
BDMV Provider: U2
Video: H264 Hi10P 720p
Audio: QAAC CBR 320 Kbps Stereo
Encoder: Omar
Server: MegaMan
Info : MAL

~.~.~.~.~.~.~.~.~.~.~.~.~.~.~.~.~.~.~.~

Image
Image
Image
Image

~.~.~.~.~.~.~.~.~.~.~.~.~.~.~.~.~.~.~.~

General
Complete name : [Anime Land] One Punch Man OVA 05 (BDRip 720p Hi10P QAAC) RAW [8B095B42].mp4
Format : MPEG-4
Format profile : JVT
Codec ID : avc1 (isom/avc1)
File size : 302 MiB
Duration : 11mn 54s
Overall bit rate mode : Variable
Overall bit rate : 3 544 Kbps
Encoded date : UTC 2016-08-11 17:13:58
Tagged date : UTC 2016-08-11 17:13:58

Video
ID : 1
Format : AVC
Format/Info : Advanced Video Codec
Format profile : High 10@L5
Format settings, CABAC : Yes
Format settings, ReFrames : 16 frames
Codec ID : avc1
Codec ID/Info : Advanced Video Coding
Duration : 11mn 54s
Bit rate : 3 220 Kbps
Maximum bit rate : 13.5 Mbps
Width : 1 280 pixels
Height : 720 pixels
Display aspect ratio : 16:9
Frame rate mode : Constant
Frame rate : 23.976 (24000/1001) fps
Color space : YUV
Chroma subsampling : 4:2:0
Bit depth : 10 bits
Scan type : Progressive
Bits/(Pixel*Frame) : 0.146
Stream size : 274 MiB (91%)
Writing library : x264 core 133 r2334 a3ac64b
Encoding settings : cabac=1 / ref=16 / deblock=1:-1:-1 / analyse=0x3:0x133 / me=umh / subme=10 / psy=1 / psyrd=1.00:0.15 / mixedref=1 / merange=24 / chromame=1 / trellis=2 / 8x8dct=1 / cqm=0 / deadzone=21,11 / fastpskip=0 / chromaqpoffset=-3 / threads=18 / lookaheadthreads=4 / slicedthreads=0 / nr=0 / decimate=1 / interlaced=0 / bluraycompat=0 / constrainedintra=0 / bframes=16 / bpyramid=2 / badapt=2 / bbias=0 / direct=3 / weightb=1 / opengop=0 / weightp=2 / keyint=250 / keyintmin=23 / scenecut=40 / intrarefresh=0 / rclookahead=60 / rc=crf / mbtree=1 / crf=15.0 / qcomp=0.80 / qpmin=0 / qpmax=81 / qpstep=4 / ip_ratio=1.40 / aq=2:1.00
Encoded date : UTC 2016-08-11 17:13:58
Tagged date : UTC 2016-08-11 18:09:26

Audio
ID : 2
Format : AAC
Format/Info : Advanced Audio Codec
Format profile : LC
Codec ID : 40
Duration : 11mn 54s
Bit rate mode : Variable
Bit rate : 320 Kbps
Maximum bit rate : 332 Kbps
Channel(s) : 2 channels
Channel positions : Front: L R
Sampling rate : 48.0 KHz
Frame rate : 46.875 fps (1024 spf)
Compression mode : Lossy
Stream size : 27.3 MiB (9%)
Encoded date : UTC 2016-08-11 18:04:45
Tagged date : UTC 2016-08-11 18:09:26


More at ibit.to
And ibit.uno
And ibit.ws

Comments

Files

[Anime Land] One Punch Man NCED (BDRip 720p Hi10P QAAC) RAW [FEC72AA6].mp4 30 MB
[Anime Land] One Punch Man NCOP (BDRip 720p Hi10P QAAC) RAW [5233D3FA].mp4 64 MB
[Anime Land] One Punch Man OVA 01 (BDRip 720p Hi10P QAAC) RAW [B551A2D0].mp4 261 MB
[Anime Land] One Punch Man OVA 02 (BDRip 720p Hi10P QAAC) RAW [D2A843CD].mp4 235 MB
[Anime Land] One Punch Man OVA 03 (BDRip 720p Hi10P QAAC) RAW [5F78D729].mp4 305 MB
[Anime Land] One Punch Man OVA 04 (BDRip 720p Hi10P QAAC) RAW [0EA0D4BA].mp4 267 MB
[Anime Land] One Punch Man OVA 05 (BDRip 720p Hi10P QAAC) RAW [8B095B42].mp4 302 MB
[Anime Land] One Punch Man OVA 06-END (BDRip 720p Hi10P QAAC) RAW [14F16A4B].mp4 273 MB

Stream

Downloading Seeding [Anime Land] One Punch Man OVA 1~6-END (BDRip 720p Hi10P QAAC) RAW from to 0 peers.
of
0 b/s / ↗0 b/s