• 15
  • 1
  • done
Sponsored Downloadondemand_video
  • Voroniny.22.2018.SATRiip.Files-x
  • 4.9 GB
  • Сударыня
  • Русские сериалы
0%

Le TVA 22 heures: Le TVA 22 heures

  • News
  • Le TVA 22 heures is the main nightly network newscast on TVA, a French language television network in the Canadian province of Quebec which is also available across Canada on cable. The program airs weekday evenings at 10 p.m. ET, and is anchored by Sophie Thibault. It is rebroadcast at 11 p.m. ET on TVA's all-news channel LCN.

    English

    Description

    Воронины

    image

    Год выпуска : 2018

    Производство : Россия, СТС

    Жанр : комедия, семейное кино

    Продолжительность : ~ 24 минуты

    Субтитры : нет

    Режиссёр: Александр Жигалкин

    В ролях : Георгий (Егор) Дронов, Екатерина Волкова (II), Станислав Дужников, Борис Клюев, Анна Фроловцева

    Описание : В обычном доме в трехкомнатной квартире живет молодая семья: Костя, его жена Вера и их дети – пятилетняя дочка и два маленьких сына-близнеца. Костя – известный спортивный журналист. Жена Вера любит его и ведет все хозяйство, а дети не доставляют много хлопот. Гораздо больше хлопот им приносят родители Кости, которые живут напротив на той же лестничной площадке… Воронины – это история о том, что иногда родственники бывают слишком близкими.

    Все раздачи сериала

    Сэмпл: multi-up.com

    image

    Качество : SATRip

    Формат : AVI

    Видео кодек : XviD

    Аудио кодек : MP3

    Видео : 720x528 (1.36:1), 25 fps, XviD build 73 ~1587 kbps avg, 0.17 bit/pixel

    Аудио : 48 kHz, AC3 Dolby Digital, 2/0 (L,R) ch, ~192.00 kbps avg

    MI

    Общее
    Полное имя : D:ТоррентПослеVoroniny.22.2018.SATRiip.Files-x01.Voroniny.22.2018.SATRiip.Files-x.avi
    Формат : AVI
    Формат/Информация : Audio Video Interleave
    Размер файла : 289 Мбайт
    Продолжительность : 23 м. 48 с.
    Общий поток : 1698 Кбит/сек
    Программа кодирования : VirtualDubMod 1.5.10.3 | www.virtualdub-fr.org || (build 2550/release)
    Библиотека кодирования : VirtualDubMod build 2550/release

    Видео
    Идентификатор : 0
    Формат : MPEG-4 Visual
    Профиль формата : Advanced [email protected]
    Настройки формата : BVOP1 / Custom Matrix
    Параметр BVOP формата : 1
    Параметр QPel формата : Нет
    Параметр GMC формата : Без точки перехода
    Параметр матрицы формата : Выборочная
    Идентификатор кодека : XVID
    Идентификатор кодека/Подсказка : XviD
    Продолжительность : 23 м. 48 с.
    Битрейт : 1496 Кбит/сек
    Ширина : 720 пикселей
    Высота : 400 пикселей
    Соотношение сторон : 16:9
    Частота кадров : 25,000 кадров/сек
    Цветовое пространство : YUV
    Субдискретизация насыщенности : 4:2:0
    Битовая глубина : 8 бит
    Тип развёртки : Прогрессивная
    Метод сжатия : С потерями
    Бит/(Пиксели*Кадры) : 0.208
    Размер потока : 255 Мбайт (88%)
    Библиотека кодирования : XviD 73

    Аудио
    Идентификатор : 1
    Формат : AC-3
    Формат/Информация : Audio Coding 3
    Коммерческое название : Dolby Digital
    Идентификатор кодека : 2000
    Продолжительность : 23 м. 48 с.
    Вид битрейта : Постоянный
    Битрейт : 192 Кбит/сек
    Каналы : 2 канала
    Channel layout : L R
    Частота : 48,0 КГц
    Частота кадров : 31,250 кадров/сек (1536 SPF)
    Битовая глубина : 16 бит
    Метод сжатия : С потерями
    Размер потока : 32,7 Мбайт (11%)
    Выравнивание : Разделение по промежуткам
    Продолжительность промежутка : 40 мс. (1,00 видеокадр)
    Время предзагрузки промежутка : 500 мс.
    ServiceKind/String : Complete Main

    Скриншоты

    image
    image
    image
    image
    image
    image
    image
    image

    Как закачать отдельный файл из торрента или докачать ранее пропущенные файлы торрента.


    More at ibit.to
    And ibit.uno
    And ibit.ws

    Reviews

    Comments

    5 months ago

    Разбила прежнюю раздачу на две, получилось два сезона 21 и 22. Добавлена 18 серия (494) 22 сезона.

    5 months ago

    Сударыня Спасибо вам что не забросили сериал, альтернативы вообще нет ни у кого с выходом новых серий

    5 months ago

    Inc1tatus писал(а): 76686303Спасибо вам что не забросили сериал Пожалуйста. Inc1tatus писал(а): 76686303альтернативы вообще нет ни у кого с выходом новых серий А новых, пока, нет.

    5 months ago

    Сударыня писал(а): 76686529А новых, пока, нет. Да это я знаю, я про то имел в виду, что уже 21 сезон только вы одна и раздавали. Раньше много сезонов раздавал уважаемый shel27, но похоже ему это наскучило. Так что вся надежда только на вас!)

    5 months ago

    Inc1tatus писал(а): 76689944Раньше много сезонов раздавал уважаемый shel27 Это да, жалко, что он больше не может этим заниматься. Inc1tatus писал(а): 76689944Так что вся надежда только на вас!) Я буду раздавать, если желающих вообще не будет, а если будут, то и хорошо

    5 months ago

    Сударыня писал(а): 76689995Я буду раздавать, если желающих вообще не будет Спасибо! Желающие будут! Организуем!!!

    5 months ago

    Inc1tatus писал(а): 76690006Спасибо Всегда пожалуйста Inc1tatus писал(а): 76690006Желающие будут! Организуем!!! В принципе, мы уже договорились с Pigy, что он дальше будет раздавать.

    5 months ago

    В этом году 10 лет сериалу.

    4 months ago

    Сударыня сегодня на канале СТС был анонс новых серий, вроде как с понедельника должны выйти... с 18:00

    4 months ago

    Супер.Спасибо.

    Files

    13.Voroniny.22.2018.SATRiip.Files-x.avi 269 MB
    12.Voroniny.22.2018.SATRiip.Files-x.avi 279 MB
    07.Voroniny.22.2018.SATRiip.Files-x.avi 271 MB
    03.Voroniny.22.2018.SATRiip.Files-x.avi 270 MB
    10.Voroniny.22.2018.SATRiip.Files-x.avi 272 MB
    01.Voroniny.22.2018.SATRiip.Files-x.avi 289 MB
    02.Voroniny.22.2018.SATRiip.Files-x.avi 268 MB
    15.Voroniny.22.2018.SATRiip.Files-x.avi 283 MB
    11.Voroniny.22.2018.SATRiip.Files-x.avi 285 MB
    16.Voroniny.22.2018.SATRiip.Files-x.avi 282 MB
    06.Voroniny.22.2018.SATRiip.Files-x.avi 280 MB
    09.Voroniny.22.2018.SATRiip.Files-x.avi 282 MB
    14.Voroniny.22.2018.SATRiip.Files-x.avi 290 MB
    08.Voroniny.22.2018.SATRiip.Files-x.avi 279 MB
    17.Voroniny.22.2018.SATRiip.Files-x.avi 273 MB
    05.Voroniny.22.2018.SATRiip.Files-x.avi 283 MB
    04.Voroniny.22.2018.SATRiip.Files-x.avi 285 MB
    18.Voroniny.22.2018.SATRiip.Files-x.avi 301 MB

    Stream

    Downloading Seeding Voroniny.22.2018.SATRiip.Files-x from to 0 peers.
    of
    0 b/s / ↗0 b/s