• 45
  • 4
  • done
Anonymous Downloadondemand_video
  • Пил_2019_WEB-DLRip.avi
  • 1.6 GB
  • порошков
  • 2019 WEB DLRip avi
  • Зарубежное кино
Warning! Use a VPN When Downloading Torrents!
Your IP Address is ,
Your Internet Provider can see when you download torrents! Hide your IP ADDRESS with a VPN
We strongly recommend hide.me VPN to hide your torrenting. It's FREE!
DOWNLOAD VPN
59%

Peel (2019)

  • Drama Comedy
  • After his father takes his two brothers and high tails it, Peel is forced to grow up in a state of arrested development. Once his mother dies, he must forge his own path and attempts to find his lost brethren.

    expand_more
    English

    Description

    Пил / Peel

    image

    Страна : Великобритания

    Жанр : драма

    Год выпуска : 2019

    Продолжительность : 01:41:16


    Перевод : Профессиональный (многоголосый закадровый) |

    iTunes

    Субтитры : нет

    Оригинальная аудиодорожка : нет


    Режиссер : Рафаэль Монсеррате / Rafael Monserrate


    В ролях : Эмиль Хирш, Джек Кеси, Шайло Фернандес, Джейкоб Варгас, Гарретт Клэйтон, Эми Бреннеман, Йайа ДаКоста, Анджелина Джу, Трой Холл, Виктор Верхак


    Описание : Пил был брошен отцом в возрасте пяти лет и рос в полной изоляции, которую ему устроила любящая, но одновременно с этим сумасшедшая мать. Когда Пилу исполняется тридцать лет, он остаётся совсем один после скоропостижной кончины матери и находится перед сложным выбором: оставить всё как есть и продолжить отшельническую жизнь или ворваться на шумные улицы своего города, знакомясь с новыми людьми?


    image


    Качество видео : WEB-DLRip

    Формат видео : AVI

    Видео : 720x304 (2.37:1), 23.976 fps, XviD build 73 ~1666 kbps avg, 0.32 bit/pixel

    Аудио : 48 kHz, AC3 Dolby Digital, 3/2 (L,C,R,l,r) + LFE ch, ~384 kbps


    Сэмпл


    MediaInfo

    ``

    Код:

    Формат                                   : AVI
    Формат/Информация                        : Audio Video Interleave
    Размер файла                             : 1,46 Гбайт
    Продолжительность                        : 1 ч. 41 м.
    Общий поток                              : 2060 Кбит/сек
    Название фильма                          : Пил2019WEB-DLRip
    Программа кодирования                    : VirtualDubMod 1.5.10.3 | www.virtualdub-fr.org || (build 2550/release)
    Авторское право                          : порошков

    Видео
    Идентификатор                            : 0
    Формат                                   : MPEG-4 Visual
    Профиль формата                          : Advanced [email protected]
    Настройки формата                        : BVOP1 / Custom Matrix
    Параметр BVOP формата                    : 1
    Параметр QPel формата                    : Нет
    Параметр GMC формата                     : Без точки перехода
    Параметр матрицы формата                 : Выборочная
    Идентификатор кодека                     : XVID
    Идентификатор кодека/Подсказка           : XviD
    Продолжительность                        : 1 ч. 41 м.
    Битрейт                                  : 1667 Кбит/сек
    Ширина                                   : 720 пикселей
    Высота                                   : 304 пикселя
    Соотношение сторон                       : 2,35:1
    Частота кадров                           : 23,976 (24000/1001) кадра/сек
    Цветовое пространство                    : YUV
    Субдискретизация насыщенности            : 4:2:0
    Битовая глубина                          : 8 бит
    Тип развёртки                            : Прогрессивная
    Метод сжатия                             : С потерями
    Бит/(Пиксели*Кадры)                      : 0.318
    Размер потока                            : 1,18 Гбайт (81%)
    Библиотека кодирования                   : XviD 73

    Аудио
    Идентификатор                            : 1
    Формат                                   : AC-3
    Формат/Информация                        : Audio Coding 3
    Коммерческое название                    : Dolby Digital
    Идентификатор кодека                     : 2000
    Продолжительность                        : 1 ч. 41 м.
    Вид битрейта                             : Постоянный
    Битрейт                                  : 384 Кбит/сек
    Каналы                                   : 6 каналов
    ChannelLayout                            : L R C LFE Ls Rs
    Частота                                  : 48,0 КГц
    Частота кадров                           : 31,250 кадров/сек (1536 SPF)
    Битовая глубина                          : 16 бит
    Метод сжатия                             : С потерями
    Размер потока                            : 278 Мбайт (19%)
    Выравнивание                             : Разделение по промежуткам
    Продолжительность промежутка             : 42  мс. (1,00 видеокадр)
    Время предзагрузки промежутка            : 500  мс.
    ServiceKind/String                       : Complete Main

    Скриншоты

    image image image
    image image image


    More at ibit.to
    And ibit.uno
    And ibit.am
    And ibit.ws

    Reviews

    Comments

    Files

    Пил_2019_WEB-DLRip.avi 1.6 GB

    Stream

    Downloading Seeding Пил_2019_WEB-DLRip.avi from to 0 peers.
    of
    0 b/s / ↗0 b/s