• 7
  • 2
  • done
Sponsored Downloadondemand_video
  • Последний бой.2019. Files-x..WEB-DLRip
  • 2.9 GB
  • pigy
  • 2019 Files WEB DLRip
  • Зарубежные сериалы

Description

Последний бой / Останній бій

image

Год выпуска : 2019

Страна : Украина

Жанр : драма, военный

Продолжительность : ~00:55:00 серия

Перевод : не требуется

Субтитры : нет

Режиссёр : Виталий Ващенко

В ролях : Михаил Хмуров, Игорь Петрусенко, Владимир Гориславец, Анастасия Иванова, Евгений Ламах, Борис Смолкин

Описание :

Июнь 1941 года, окрестности Бреста. На заводе изготовили новый экспериментальный танк в единственном экземпляре. По пути на полигон для испытаний экипаж узнает, что началась война. На мосту они видят грузовик и хотят попросить о помощи, но понимают, что перед ними немецкие солдаты. Отступать поздно. Вот-вот начнется кровопролитный бой, но враги еще не знают, что перед ними Т-34 — тот самый танк, впоследствии признанный лучшим танком Второй мировой войны.

Реклама : Нет.

Кино-театр
Все раздачи сериала
Sample

Качество : WEBRip -

Files-x

Формат : AVI

Видео кодек : XviD

Аудио кодек : AC3

Видео : 720x400 (1.80:1), 25 fps, XviD build 73 ~1600 kbps avg, 0.222 bit/pixel

Аудио : 48.0 kHz, AC3 Dolby Digital, 2/0 (L,R) ch, ~ 192 kbps

MI

General
Complete name : D:Последний бой.2019. Files-x..WEB-DLRip01. Последний бой.2019. Files-x..WEB-DLRip.avi
Format : AVI
Format/Info : Audio Video Interleave
File size : 719 MiB
Duration : 55 min 45 s
Overall bit rate : 1 802 kb/s
Writing application : VirtualDubMod 1.5.10.3 | www.virtualdub-fr.org || (build 2550/release)
Writing library : VirtualDubMod build 2550/release

Video
ID : 0
Format : MPEG-4 Visual
Format profile : Advanced [email protected]
Format settings : BVOP1 / Custom Matrix
Format settings, BVOP : 1
Format settings, QPel : No
Format settings, GMC : No warppoints
Format settings, Matrix : Custom
Codec ID : XVID
Codec ID/Hint : XviD
Duration : 55 min 45 s
Bit rate : 1 600 kb/s
Width : 720 pixels
Height : 400 pixels
Display aspect ratio : 16:9
Frame rate : 25.000 FPS
Color space : YUV
Chroma subsampling : 4:2:0
Bit depth : 8 bits
Scan type : Progressive
Compression mode : Lossy
Bits/(Pixel*Frame) : 0.222
Stream size : 638 MiB (89%)
Writing library : XviD 73

Audio
ID : 1
Format : AC-3
Format/Info : Audio Coding 3
Codec ID : 2000
Duration : 55 min 45 s
Bit rate mode : Constant
Bit rate : 192 kb/s
Channel(s) : 2 channels
Channel positions : Front: L R
Sampling rate : 48.0 kHz
Frame rate : 31.250 FPS (1536 SPF)
Bit depth : 16 bits
Compression mode : Lossy
Stream size : 76.6 MiB (11%)
Alignment : Split accross interleaves
Interleave, duration : 40 ms (1.00 video frame)
Interleave, preload duratio : 500 ms
Service kind : Complete Main

Скриншоты

image image image image
image image image image


More at ibit.to
And ibit.uno
And ibit.ws

Comments

Files

Последний бой.2019. Files-x..WEB-DLRip01. Последний бой.2019. Files-x..WEB-DLRip.avi 754 MB
Последний бой.2019. Files-x..WEB-DLRip02. Последний бой.2019. Files-x..WEB-DLRip.avi 700 MB
Последний бой.2019. Files-x..WEB-DLRip03. Последний бой.2019. Files-x..WEB-DLRip.avi 697 MB
Последний бой.2019. Files-x..WEB-DLRip04. Последний бой.2019. Files-x..WEB-DLRip.avi 779 MB

Stream

Downloading Seeding Последний бой.2019. Files-x..WEB-DLRip from to 0 peers.
of
0 b/s / ↗0 b/s