• 86
  • 63
  • done
Sponsored Downloadondemand_video
  • Ни шагу Назад!.2019.Files-x..WEB-DLRip
  • 4.0 GB
  • pigy
  • 2019 Files WEB DLRip
  • Зарубежные сериалы

Description

Ни шагу назад

image

Год выпуска : 2019

Страна : Украина

Жанр : драма, военный

Продолжительность : ~00:48:00 серия

Перевод : не требуется

Субтитры : нет

Режиссёр : Дмитрий Сорокин, Георгий Фероренко

В ролях : Валентина Попова , Гела Месхи, Мария Шукшина, Фёдор Гуринец, Анастасия Зюркалова, Шорена Шония, Тамара Миронова, Себастьян Антон, Алена Медведева , Марина Поддубная, Светлана Косолапова, Инна Коляда, Дарья Рыбак, Елизавета Фалей, Анатолий Голуб, Дмитрий Пустильник, Сергей Бережко

Описание :

Главная героиня – Тошка Лыткина – наивная деревенская девочка, которая искренне любила всех без исключения людей. Во время вражеского авианалета у нее на глазах погибла вся деревня, в том числе – ее мать и младший брат. Девочка чудом выжила, но осталась круглой сиротой: ее отца убили на фронте в первые дни войны. После этой трагедии жизнерадостная простушка Тошка научилась ненавидеть. Она решила пойти на войну, чтобы убить Гитлера и отомстить за родных. Но суровый майор по фамилии Рай посчитал 16-летнюю девушку слишком юной, чтобы отправлять на фронт.

Реклама : Нет.

Кино-театр
Все раздачи сериала
Sample

Качество : WEBRip -

Files-x

Формат : AVI

Видео кодек : XviD

Аудио кодек : AC3

Видео : 720x400 (1.80:1), 25 fps, XviD build 73 ~1600 kbps avg, 0.222 bit/pixel

Аудио : 48.0 kHz, AC3 Dolby Digital, 2/0 (L,R) ch, ~ 192 kbps

MI

General
Complete name : D:Ни шагу Назад!.2019.Files-x..WEB-DLRip01. Ни шагу Назад!.2019.Files-x..WEB-DLRip.avi
Format : AVI
Format/Info : Audio Video Interleave
File size : 620 MiB
Duration : 48 min 7 s
Overall bit rate : 1 802 kb/s
Writing application : VirtualDubMod 1.5.10.3 | www.virtualdub-fr.org || (build 2550/release)
Writing library : VirtualDubMod build 2550/release

Video
ID : 0
Format : MPEG-4 Visual
Format profile : Advanced Simple@L5
Format settings : BVOP1 / Custom Matrix
Format settings, BVOP : 1
Format settings, QPel : No
Format settings, GMC : No warppoints
Format settings, Matrix : Custom
Codec ID : XVID
Codec ID/Hint : XviD
Duration : 48 min 7 s
Bit rate : 1 600 kb/s
Width : 720 pixels
Height : 400 pixels
Display aspect ratio : 16:9
Frame rate : 25.000 FPS
Color space : YUV
Chroma subsampling : 4:2:0
Bit depth : 8 bits
Scan type : Progressive
Compression mode : Lossy
Bits/(Pixel*Frame) : 0.222
Stream size : 551 MiB (89%)
Writing library : XviD 73

Audio
ID : 1
Format : AC-3
Format/Info : Audio Coding 3
Codec ID : 2000
Duration : 48 min 7 s
Bit rate mode : Constant
Bit rate : 192 kb/s
Channel(s) : 2 channels
Channel positions : Front: L R
Sampling rate : 48.0 kHz
Frame rate : 31.250 FPS (1536 SPF)
Bit depth : 16 bits
Compression mode : Lossy
Stream size : 66.1 MiB (11%)
Alignment : Split accross interleaves
Interleave, duration : 40 ms (1.00 video frame)
Interleave, preload duratio : 500 ms
Service kind : Complete Main

Скриншоты

image image image image
image image image image


More at ibit.to
And ibit.uno
And ibit.ws

Comments

Files

Ни шагу Назад!.2019.Files-x..WEB-DLRip01. Ни шагу Назад!.2019.Files-x..WEB-DLRip.avi 650 MB
Ни шагу Назад!.2019.Files-x..WEB-DLRip02. Ни шагу Назад!.2019.Files-x..WEB-DLRip.avi 658 MB
Ни шагу Назад!.2019.Files-x..WEB-DLRip03. Ни шагу Назад!.2019.Files-x..WEB-DLRip.avi 676 MB
Ни шагу Назад!.2019.Files-x..WEB-DLRip04. Ни шагу Назад!.2019.Files-x..WEB-DLRip.avi 684 MB
Ни шагу Назад!.2019.Files-x..WEB-DLRip05. Ни шагу Назад!.2019.Files-x..WEB-DLRip.avi 690 MB
Ни шагу Назад!.2019.Files-x..WEB-DLRip06. Ни шагу Назад!.2019.Files-x..WEB-DLRip.avi 681 MB

Stream

Downloading Seeding Ни шагу Назад!.2019.Files-x..WEB-DLRip from to 0 peers.
of
0 b/s / ↗0 b/s