• 44
  • 8
  • done
Sponsored Downloadondemand_video
  • Женщина с прошлым.(2018).WEB-DLRip.Files-x
  • 2.2 GB
  • Pigy
  • 2018 WEB DLRip Files
  • Русские сериалы

Description

Женщина с прошлым

image

Год выпуска : 2018

Производство : Кинокомпания "Русское"

Жанр : мелодрама

Продолжительность : ~00:45:00 серия

Субтитры : нет

Режиссёр : Рауф Кубаев

В ролях : Евгения Добровольская, Александра Тулинова, Софья Лебедева, Илья Малаков, Константин Стрельников, Максим Логинов, Андрей Руденский, Ольга Сухарева

Описание :

Евгения Нерестова живет в приморском городке и держит собственную небольшую кондитерскую. Но люди приезжают к ней не только ради выпечки. Близкие давно знают, что Женя — особенная. Она видит то, чего остальные ни видеть, ни знать не могут! Но для самой Жени ее дар — это настоящая мука. Женя несчастна и давно одна, потому что уверена — она не достойна любви и счастья. Но однажды она понимает, что беда подбирается к ее дочери Норе. Нечто ужасное должно вскоре случиться! Женя бросает все и едет в Москву…

Реклама : Нет.

Кинопоиск
Все раздачи сериала
Sample

Качество : WEBRip -

Files-x

Формат : AVI

Видео кодек : XviD

Аудио кодек : AC3

Видео : 720x400 (1.80:1), 25 fps, XviD build 73 ~1600 kbps avg, 0.222 bit/pixel

Аудио : 48.0 kHz, AC3 Dolby Digital, 2/0 (L,R) ch, ~ 192 kbps

MI

General
Complete name : D:Женщина с прошлым.(2018).WEB-DLRip.Files-x01.Женщина с прошлым.(2018).WEB-DLRip.Files-x.avi
Format : AVI
Format/Info : Audio Video Interleave
File size : 1.13 GiB
Duration : 1 h 29 min
Overall bit rate : 1 801 kb/s
Writing application : VirtualDubMod 1.5.10.3 | www.virtualdub-fr.org || (build 2550/release)
Writing library : VirtualDubMod build 2550/release

Video
ID : 0
Format : MPEG-4 Visual
Format profile : Advanced [email protected]
Format settings : BVOP1 / Custom Matrix
Format settings, BVOP : 1
Format settings, QPel : No
Format settings, GMC : No warppoints
Format settings, Matrix : Custom
Codec ID : XVID
Codec ID/Hint : XviD
Duration : 1 h 29 min
Bit rate : 1 600 kb/s
Width : 720 pixels
Height : 400 pixels
Display aspect ratio : 16:9
Frame rate : 25.000 FPS
Color space : YUV
Chroma subsampling : 4:2:0
Bit depth : 8 bits
Scan type : Progressive
Compression mode : Lossy
Bits/(Pixel*Frame) : 0.222
Stream size : 1.00 GiB (89%)
Writing library : XviD 73

Audio
ID : 1
Format : AC-3
Format/Info : Audio Coding 3
Codec ID : 2000
Duration : 1 h 29 min
Bit rate mode : Constant
Bit rate : 192 kb/s
Channel(s) : 2 channels
Channel positions : Front: L R
Sampling rate : 48.0 kHz
Frame rate : 31.250 FPS (1536 SPF)
Bit depth : 16 bits
Compression mode : Lossy
Stream size : 123 MiB (11%)
Alignment : Split accross interleaves
Interleave, duration : 40 ms (1.00 video frame)
Interleave, preload duratio : 500 ms
Service kind : Complete Main

Скриншоты

image image image image
image image image image


More at ibit.to
And ibit.uno
And ibit.ws

Comments

3 months ago

Подписка, спасибо.

Files

01.Женщина с прошлым.(2018).WEB-DLRip.Files-x.avi 1.1 GB
02.Женщина с прошлым.(2018).WEB-DLRip.Files-x.avi 1.1 GB

Stream

Downloading Seeding Женщина с прошлым.(2018).WEB-DLRip.Files-x from to 0 peers.
of
0 b/s / ↗0 b/s