• 2
  • -
  • done
Sponsored Download
  • Зачётный препод .2013.HDRip.mp4
  • 646 MB
  • zip_sq
  • 2013 HDRip mp4
  • Видео для консолей

Description

Зачётный препод




image

Оригинальное Название : Fack ju Gohte

Год Выпуска : 2013 г.

Cтрана : Германия

Жанр : комедия

Продолжительность : 01:57:08


Перевод :

Профессиональный (дублированный)

[Чистый звук]


Режиссер : Бора Дагтекин

В ролях : Элиас ЭмБарек, Каролине Херфурт, Катя Риман, Яна Палласке, Алвара Хёфельс, Йелла Хаазе, Макс фон Гробен, Анна-Лена Кленке, Гизем Эмре


Описание :

Незадачливый грабитель банков Зеки Мюллер после тринадцати месяцев отсидки выходит из тюрьмы. Он отправляется на поиски награбленной добычи, которая была спрятана на стройке. Вместе с подружкой они думали, что там идёт всего-навсего прокладка труб. Каково же удивление горе-грабителя, когда он обнаруживает на нужном месте новенький школьный спортзал!

Чтобы добраться до награбленного, Зеки пытается устроиться на место школьного сторожа. Но в результате лёгкого недопонимания вместо этого его берут в качестве учителя на замену. Ему достаётся самый буйный и ненормальный класс во всей школе — 10 «Б». Используя несколько необычные методы, бывший грабитель неожиданно находит общий язык с учениками. Одновременно с этим по ночам он пытается добраться до спрятанной добычи и влюбляется в коллегу-учительницу Лиси.

image image


Автор рипа :

lokomotiv23


Источник : BDRip 720p

Качество : HDRip

Формат : MP4

Видео кодек : H.264

Аудио кодек : AAC

Видео : MPEG-4 AVC Video (H.264) / 480x208 / 640 kbps / 23.976 fps

Аудио : AAC, 2 channels, 48 kHz, 128 kbps


MediaInfo

Код:

General
Complete name                       : Зачётный препод .2013.HDRip.mp4
Format                              : MPEG-4
Format profile                      : Base Media
Codec ID                            : isom
File size                           : 646 MiB
Duration                            : 1h 57mn
Overall bit rate mode               : Variable
Overall bit rate                    : 772 Kbps
Encoded date                        : UTC 2014-12-05 13:50:04
Tagged date                         : UTC 2014-12-05 13:50:04

Video
ID                                  : 1
Format                              : AVC
Format/Info                         : Advanced Video Codec
Format profile                      : Main@L3.0
Format settings, CABAC              : Yes
Format settings, ReFrames           : 3 frames
Codec ID                            : avc1
Codec ID/Info                       : Advanced Video Coding
Duration                            : 1h 57mn
Bit rate                            : 640 Kbps
Maximum bit rate                    : 4 168 Kbps
Width                               : 480 pixels
Height                              : 208 pixels
Display aspect ratio                : 2.35:1
Frame rate mode                     : Constant
Frame rate                          : 24.000 fps
Color space                         : YUV
Chroma subsampling                  : 4:2:0
Bit depth                           : 8 bits
Scan type                           : Progressive
Bits/(Pixel*Frame)                  : 0.267
Stream size                         : 536 MiB (83%)
Writing library                     : x264 core 130 r2273 b3065e6
Encoding settings                   : cabac=1 / ref=3 / deblock=1:-1:0 / analyse=0x1:0x131 / me=umh / subme=10 / psy=1 / psyrd=1.00:0.20 / mixedref=1 / merange=16 / chromame=1 / trellis=2 / 8x8dct=0 / cqm=0 / deadzone=21,11 / fastpskip=0 / chromaqpoffset=-3 / threads=6 / lookaheadthreads=1 / slicedthreads=0 / nr=0 / decimate=0 / interlaced=0 / bluraycompat=0 / constrainedintra=0 / bframes=3 / bpyramid=0 / badapt=2 / bbias=0 / direct=3 / weightb=1 / opengop=0 / weightp=2 / keyint=250 / keyintmin=23 / scenecut=40 / intrarefresh=0 / rclookahead=60 / rc=2pass / mbtree=1 / bitrate=640 / ratetol=1.0 / qcomp=0.60 / qpmin=0 / qpmax=69 / qpstep=4 / cplxblur=20.0 / qblur=0.5 / ip_ratio=1.40 / aq=1:1.00
Encoded date                        : UTC 2014-12-05 13:50:04
Tagged date                         : UTC 2014-12-05 13:50:15

Audio
ID                                  : 2
Format                              : AAC
Format/Info                         : Advanced Audio Codec
Format profile                      : LC
Codec ID                            : 40
Duration                            : 1h 57mn
Bit rate mode                       : Variable
Bit rate                            : 128 Kbps
Maximum bit rate                    : 173 Kbps
Channel(s)                          : 2 channels
Channel positions                   : Front: L R
Sampling rate                       : 48.0 KHz
Compression mode                    : Lossy
Delay relative to video             : 83ms
Stream size                         : 107 MiB (17%)
Encoded date                        : UTC 2014-12-05 13:50:12
Tagged date                         : UTC 2014-12-05 13:50:15


Скриншоты

image image image
image image image


More at ibit.to
And ibit.uno
And ibit.ws

Comments

2 years ago

Зачетный веселый фильм, чем-то сильно напоминающий "Каникулы строго режима" по интриге сюжета. Современной школе дико не хватает личности в составе учителей.

Files

Зачётный препод .2013.HDRip.mp4 646 MB

Stream

Downloading Seeding Зачётный препод .2013.HDRip.mp4 from to 0 peers.
of
0 b/s / ↗0 b/s