• -
  • -
  • done
Downloadondemand_video
  • Плащ. Сериал. 2011. EniaHD (WEB-DL 1080p)
  • 27 GB
  • atla22
  • 2011 EniaHD WEB 1080p
  • Зарубежные сериалы (HD Video)
48%

The Cape: Specials(2010)

  • Action & Adventure Drama
  • "The Cape" is a drama series following Vince Faraday, an honest cop on a corrupt police force, who finds himself framed for a series of murders and presumed dead. He is forced into hiding, leaving behind his wife Dana and son, Trip. Fueled by a desire to reunite with his family and to battle the criminal forces that have overtaken Palm City, Vince Faraday becomes "The Cape" - his son's favorite comic book superhero - and takes the law into his own hands.

    expand_more
    English

    Description

    Плащ / The Cape


    image


    «Надень костюм. Дай бой»


    image

    Год выпуска : 2011

    Страна : США, Universal Media Studios, Arcanum, Berman Braun

    Жанр : боевик, драма, триллер, фэнтези

    Продолжительность : ~ 00:43:00

    Перевод : профессиональный (многоголосый закадровый) Showjet

    Перевод : профессиональный (многоголосый закадровый) LostFilm

    Режиссёр : Деран Сарафян, Роксанн Доусон, Эрнест Р. Дикерсон

    В ролях : Дэвид Лайонс, Дженнифер Феррин, Мена Сувари, Кит Дэвид, Саммер Глау, Джеймс Фрейн, Винни Джонс, Райан Ванот, Дориан Миссик, Мартин Клебба

    Описание : Для фанатов комиксов от Marvel и DC: сериал «Плащ» о простом полицейском, которому пришлось стать супергероем ради спасения города.
    Винс Фарадей — примерный семьянин и самый честный коп во всем Палм-сити. Уже долгое время он гоняется за опасным преступником в маске — Шахматистом. Фарадей узнает, что таинственный злодей — это миллиардер Питер Флемминг, и пытается самостоятельно его поймать. Но Флемминг оказывается хитрее: он надевает на Винса маску Шахматиста и вынуждает бежать от полиции. Во время погони Винс прыгает под поезд, который через секунду взрывается: теперь весь мир считает его погибшим.
    Однако Фарадей чудом выжил. Обессиленного героя находит глава цирковой банды Макс Малини, который предлагает сделку: Винс поможет Максу украсть деньги Флемминга, а циркачи превратят Фарадея в народного мстителя. Вчерашний полицейский становится загадочным Плащом (героем любимого комикса его сына) и готовится наказать негодяев, чтобы вернуться к своей семье.

    image image image

    Сэмпл

    Ссылка на предыдущие и альтернативные раздачи

    Качество : WEB-DL 1080p

    Контейнер : MKV

    Видео : AVC, 1920x1080 (16:9), ~ 9100 Kbps, 23.976 fps

    Аудио 1 : AC3, 48 kHz, 2 ch, 192 kbps -

    Rus

    (Showjet)

    Аудио 2 : AC3, 48 kHz, 2 ch, 192 kbps -

    Rus

    (LostFilm)

    Аудио 3 : AC3, 48 kHz, 6 ch, 640 kbps -

    Eng

    Субтитры : Английские

    Реклама : Отсутствует

    Спасибо : image

    Релиз

    image

    Работа со звуком: Atla22

    Список серий

    1-01. Пилот / Pilot (09.01.2011)
    1-02. Таро / Tarot (09.01.2011)
    1-03. Козмо / Kozmo (17.01.2011)
    1-04. Весы / Scales (23.01.2011)
    1-05. Игральная кость / Dice (31.01.2011)
    1-06. Очкарик и Хикс / Goggles and Hicks (07.02.2011)
    1-07. Труп. Часть 1 / The Lich: Part 1 (14.02.2011)
    1-08. Труп. Часть 2 / The Lich: Part 2 (20.02.2011)
    1-09. Рэйзер / Razer (28.02.2011)
    1-10. Конец игры / Endgame (11.03.2011)

    MediaInfo

    Код:

    Общее
    Уникальный идентификатор                 : 212205097352836450570282252338395878311 (0x9FA537130B5A206FA48E569AAD0413A7)
    Полное имя                               : Плащ. Сериал. 2011. EniaHD (WEB-DL 1080p)The.Cape.s01e01. Пилот.mkv
    Формат                                   : Matroska
    Версия формата                           : Version 2
    Размер файла                             : 3,12 Гбайт
    Продолжительность                        : 43 м. 14 с.
    Режим общего битрейта                    : Переменный
    Общий поток                              : 10,3 Мбит/сек
    Название фильма                          : Pilot
    Дата кодирования                         : UTC 2020-01-03 13:05:57
    Программа кодирования                    : mkvmerge v6.9.1 ('Blue Panther') 32bit built on Apr 18 2014 18:15:44
    Библиотека кодирования                   : libebml v1.3.0 + libmatroska v1.4.1

    Видео
    Идентификатор                            : 1
    Формат                                   : AVC
    Формат/Информация                        : Advanced Video Codec
    Профиль формата                          : [email protected]
    Настройки формата                        : CABAC / 4 Ref Frames
    Параметр CABAC формата                   : Да
    Параметр RefFrames формата               : 4 кадра
    Идентификатор кодека                     : VMPEG4/ISO/AVC
    Продолжительность                        : 43 м. 14 с.
    Вид битрейта                             : Переменный
    Битрейт                                  : 9101 Кбит/сек
    Максимальный битрейт                     : 15,0 Мбит/сек
    Ширина                                   : 1920 пикселей
    Высота                                   : 1080 пикселей
    Соотношение сторон                       : 16:9
    Режим частоты кадров                     : Постоянный
    Частота кадров                           : 23,976 (24000/1001) кадра/сек
    Цветовое пространство                    : YUV
    Субдискретизация насыщенности            : 4:2:0
    Битовая глубина                          : 8 бит
    Тип развёртки                            : Прогрессивная
    Бит/(Пиксели*Кадры)                      : 0.183
    Размер потока                            : 2,75 Гбайт (88%)
    Библиотека кодирования                   : x264 core 148 r2623 d5b2374
    Настройки программы                      : cabac=1 / ref=4 / deblock=1:-1:-1 / analyse=0x3:0x133 / me=umh / subme=9 / psy=1 / psy
    rd=1.00:0.15 / mixedref=1 / merange=24 / chromame=1 / trellis=2 / 8x8dct=1 / cqm=0 / deadzone=21,11 / fastpskip=1 / chromaqpoffset=-3 / threads=34 / lookaheadthreads=5 / slicedthreads=0 / nr=150 / decimate=1 / interlaced=0 / bluraycompat=0 / constrainedintra=0 / bframes=8 / bpyramid=2 / badapt=2 / bbias=0 / direct=3 / weightb=1 / opengop=0 / weightp=2 / keyint=120 / keyintmin=61 / scenecut=0 / intrarefresh=0 / rclookahead=120 / rc=crf / mbtree=1 / crf=18.0 / qcomp=0.60 / qpmin=0 / qpmax=69 / qpstep=4 / vbvmaxrate=15000 / vbvbufsize=31250 / crfmax=0.0 / nalhrd=vbr / filler=0 / ipratio=1.40 / aq=3:1.00
    Язык                                     : English
    Default                                  : Да
    Forced                                   : Нет
    Цветовой диапазон                        : Limited
    Основные цвета                           : BT.709
    Характеристики трансфера                 : BT.709
    Коэффициенты матрицы                     : BT.709

    Аудио #1
    Идентификатор                            : 2
    Формат                                   : AC-3
    Формат/Информация                        : Audio Coding 3
    Коммерческое название                    : Dolby Digital
    Идентификатор кодека                     : A_AC3
    Продолжительность                        : 43 м. 14 с.
    Вид битрейта                             : Постоянный
    Битрейт                                  : 192 Кбит/сек
    Каналы                                   : 2 канала
    Channel layout                           : L R
    Частота                                  : 48,0 КГц
    Частота кадров                           : 31,250 кадров/сек (1536 SPF)
    Битовая глубина                          : 16 бит
    Метод сжатия                             : С потерями
    Размер потока                            : 59,4 Мбайт (2%)
    Заголовок                                : Showjet
    Язык                                     : Russian
    ServiceKind/String                       : Complete Main
    Default                                  : Да
    Forced                                   : Нет

    Аудио #2
    Идентификатор                            : 3
    Формат                                   : AC-3
    Формат/Информация                        : Audio Coding 3
    Коммерческое название                    : Dolby Digital
    Идентификатор кодека                     : A_AC3
    Продолжительность                        : 43 м. 14 с.
    Вид битрейта                             : Постоянный
    Битрейт                                  : 192 Кбит/сек
    Каналы                                   : 2 канала
    Channel layout                           : L R
    Частота                                  : 48,0 КГц
    Частота кадров                           : 31,250 кадров/сек (1536 SPF)
    Битовая глубина                          : 16 бит
    Метод сжатия                             : С потерями
    Размер потока                            : 59,4 Мбайт (2%)
    Заголовок                                : LostFilm
    Язык                                     : Russian
    ServiceKind/String                       : Complete Main
    Default                                  : Нет
    Forced                                   : Нет

    Аудио #3
    Идентификатор                            : 4
    Формат                                   : AC-3
    Формат/Информация                        : Audio Coding 3
    Коммерческое название                    : Dolby Digital
    Идентификатор кодека                     : A_AC3
    Продолжительность                        : 43 м. 14 с.
    Вид битрейта                             : Постоянный
    Битрейт                                  : 640 Кбит/сек
    Каналы                                   : 6 каналов
    Channel layout                           : L R C LFE Ls Rs
    Частота                                  : 48,0 КГц
    Частота кадров                           : 31,250 кадров/сек (1536 SPF)
    Битовая глубина                          : 16 бит
    Метод сжатия                             : С потерями
    Размер потока                            : 198 Мбайт (6%)
    Язык                                     : English
    ServiceKind/String                       : Complete Main
    Default                                  : Нет
    Forced                                   : Нет

    Текст
    Идентификатор                            : 5
    Формат                                   : UTF-8
    Идентификатор кодека                     : S_TEXT/UTF8
    Идентификатор кодека/Информация          : UTF-8 Plain Text
    Язык                                     : English
    Default                                  : Нет
    Forced                                   : Нет

    Скриншоты

    imageimage
    imageimage
    imageimage


    More at ibit.to
    And ibit.uno
    And ibit.am
    And ibit.ws

    Reviews

    Comments

    Files

    Плащ. Сериал. 2011. EniaHD (WEB-DL 1080p)The.Cape.s01e01. Пилот.mkv 3.4 GB
    Плащ. Сериал. 2011. EniaHD (WEB-DL 1080p)The.Cape.s01e02. Таро.mkv 2.9 GB
    Плащ. Сериал. 2011. EniaHD (WEB-DL 1080p)The.Cape.s01e03. Козмо.mkv 2.8 GB
    Плащ. Сериал. 2011. EniaHD (WEB-DL 1080p)The.Cape.s01e04. Весы.mkv 2.7 GB
    Плащ. Сериал. 2011. EniaHD (WEB-DL 1080p)The.Cape.s01e05. Игральная кость.mkv 2.6 GB
    Плащ. Сериал. 2011. EniaHD (WEB-DL 1080p)The.Cape.s01e06. Очкарик и Хикс.mkv 2.8 GB
    Плащ. Сериал. 2011. EniaHD (WEB-DL 1080p)The.Cape.s01e07. Труп. Часть 1.mkv 2.4 GB
    Плащ. Сериал. 2011. EniaHD (WEB-DL 1080p)The.Cape.s01e08. Труп. Часть 2.mkv 2.3 GB
    Плащ. Сериал. 2011. EniaHD (WEB-DL 1080p)The.Cape.s01e09. Рэйзер.mkv 2.7 GB
    Плащ. Сериал. 2011. EniaHD (WEB-DL 1080p)The.Cape.s01e10. Конец игры.mkv 2.6 GB

    Stream

    Downloading Seeding Плащ. Сериал. 2011. EniaHD (WEB-DL 1080p) from to 0 peers.
    of
    0 b/s / ↗0 b/s