• 0
  • 0
  • done
Sponsored Downloadondemand_video
  • Пассажирка.2008.HDTV.1080i-ylnian.ts
  • 7.0 GB
  • ylnian
  • 2008 HDTV 1080i ylnian
  • HD Video
10%

Passenger (2008)

  • Adventure Drama History Romance
  • A beautiful Russian widow in San Francisco wishes to return to Russia after her American husband loses everything in a speculation and shoots his brains out. Along with her personal maid she is given passage to Hong Kong aboard a Russian naval vessel.

    expand_more
    Russian

    Description

    Пассажирка

    image

    Страна : Россия

    Студия : Вертикаль

    Жанр : Мелодрама, приключения, история

    Год выпуска : 2008

    Продолжительность : 01:33:42

    Перевод : Не требуется

    Субтитры : нет

    Оригинальная аудио дорожка : Русский

    Режиссёр : Станислав Говорухин

    В ролях : Анна Горшкова, Алексей Коряков, Ирина Пегова, Виктор Сухоруков , Сергей Никоненко , Роман Мадянов , Марат Башаров , Пётр Зайченко, Сергей Баталов, Фёдор Добронравов , Андрей Егоров (VI), Иван Агапов, Сергей Мухин, Михаил Миронов, Юрий Горбач, Николай Сахаров, Александр Прошин, Никита Ефремов, Родион Галюченко, Станислав Говорухин, Екатерина Воронина, Марина Орлова

    Описание : 1882 год. Русский клипер «Смелый» идет из Сан-Франциско в Гонконг. Российский консул просит капитана взять на борт пассажирку и доставить ее в Гонконг, где привлекательную во всех отношениях молоденькую барышню ждет муж-американец. И хотя, согласно известному поверью, «женщина на корабле — к беде», пассажирку принимают с почестями, а капитан даже уступает ей свою каюту. Плавание действительно окажется не простым. Красота и скромность пассажирки не оставят равнодушным ни одного офицера на судне (вплоть до капитана) и приведут к серьезной ссоре двух молодых мичманов…

    Доп. информация :
    Автор релиза - image

    Источник аудио и видео - HDTV 1080i TS - моя запись с канала Наш Кинороман HD

    image
    image
    image

    Сэмпл : https://yadi.sk/d/CtXBF96I3WXccY

    Рекламы нет!

    Качество видео : HDTV 1080i

    Формат видео : TS

    Видео : MPEG-4, 1920x1080 (16:9), 25.000 fps, 8832 kbps, 0.170 bit/pixel

    Аудио 1 : Русский MP2, 48000 Гц, 2ch, 192 kbps

    Аудио 2 : Русский AC3, 48000 Гц, 6ch, 448 kbps

    MediaInfo

    `Общее
    Идентификатор : 1 (0x1)
    Полное имя : D:Пассажирка.2008.HDTV.1080i-ylnian.ts
    Формат : MPEG-TS
    Размер файла : 6,53 Гбайт
    Продолжительность : 1 ч. 33 м.
    Режим общего битрейта : Переменный
    Общий поток : 9972 Кбит/сек

    Видео
    Идентификатор : 3551 (0xDDF)
    Идентификатор меню : 17015 (0x4277)
    Формат : AVC
    Формат/Информация : Advanced Video Codec
    Профиль формата : Main@L4
    Настройки формата : CABAC / 3 Ref Frames
    Параметр CABAC формата : Да
    Параметр RefFrames формата : 3 кадра
    Идентификатор кодека : 27
    Продолжительность : 1 ч. 33 м.
    Битрейт : 8832 Кбит/сек
    Ширина : 1920 пикселей
    Высота : 1080 пикселей
    Соотношение сторон : 16:9
    Частота кадров : 25,000 кадров/сек
    Стандарт вещания : Component
    Цветовое пространство : YUV
    Субдискретизация насыщенности : 4:2:0
    Битовая глубина : 8 бит
    Тип развёртки : Чересстрочная
    Метод сохранения типа развёртки : Раздельные поля
    Порядок развёртки : Верхнее поле первое
    Бит/(Пиксели*Кадры) : 0.170
    Размер потока : 5,78 Гбайт (89%)
    Цветовой диапазон : Limited
    Основные цвета : BT.709
    Характеристики трансфера : BT.709
    Коэффициенты матрицы : BT.709

    Аудио #1
    Идентификатор : 3552 (0xDE0)
    Идентификатор меню : 17015 (0x4277)
    Формат : MPEG Audio
    Версия формата : Version 1
    Профиль формата : Layer 2
    Идентификатор кодека : 3
    Продолжительность : 1 ч. 33 м.
    Вид битрейта : Постоянный
    Битрейт : 192 Кбит/сек
    Каналы : 2 канала
    Частота : 48,0 КГц
    Частота кадров : 41,667 кадра/сек (1152 SPF)
    Метод сжатия : С потерями
    Задержка видео : -120 мс.
    Размер потока : 129 Мбайт (2%)
    Язык : Russian

    Аудио #2
    Идентификатор : 3553 (0xDE1)
    Идентификатор меню : 17015 (0x4277)
    Формат : AC-3
    Формат/Информация : Audio Coding 3
    Идентификатор кодека : 6
    Продолжительность : 1 ч. 33 м.
    Вид битрейта : Постоянный
    Битрейт : 448 Кбит/сек
    Каналы : 6 каналов
    Расположение каналов : Front: L C R, Side: L R, LFE
    Частота : 48,0 КГц
    Частота кадров : 31,250 кадров/сек (1536 SPF)
    Битовая глубина : 16 бит
    Метод сжатия : С потерями
    Задержка видео : -120 мс.
    Размер потока : 300 Мбайт (4%)
    Язык : Russian
    ServiceKind/String : Complete Main `

    Скриншоты

    image image image image image image image image image image image image image


    More at ibit.to
    And ibit.uno
    And ibit.ws

    Reviews

    Comments

    1 year ago

    ylnian Очень размазанная картинка в этой трансляции. С DVD сравните, пожалуйста

    1 year ago

    xfiles писал(а): Очень размазанная картинка в этой трансляции ...но не уступает, а даже превосходит видео с ДВД xfiles писал(а): С DVD сравните, пожалуйста Сравнение с ДВД: --->>> --->>> --->>>

    8 months ago

    ylnian писал(а): 68655288...но не уступает, а даже превосходит видео с ДВД Можно сказать точно, что разное наполнение кадра, а при увеличении масштаба на HDTV сразу вылазит интерлейс.

    8 months ago

    Белые полоски от современного купальника - это прелестно.

    Files

    Пассажирка.2008.HDTV.1080i-ylnian.ts 7.0 GB

    Stream

    Downloading Seeding Пассажирка.2008.HDTV.1080i-ylnian.ts from to 0 peers.
    of
    0 b/s / ↗0 b/s