• 0
  • 0
  • done
Downloadondemand_video
  • Гвиана (Гайана). 2 сезон. 2018. EniaHD (BDRip 1080p)
  • 26 GB
  • zgurvas
  • 2018 EniaHD BDRip 1080p
  • Зарубежные сериалы (HD Video)
67%

Guyane: Guyane(2017)

  • Action & Adventure Drama
  • Vincent, a 20-year old geology student from Paris, goes to French Guyana to do an internship at a gold mining company. Taken under the wing of local gold lord Antoine Serra, Vincent quickly falls into the much more lucrative and dangerous world of gold trafficking. From Serra, who acts like a father to him, Vincent learns everything there is to know about the business. Newcomers aren't welcome - Louis, Serra's right hand, makes it clear that he does not trust him. Vincent and Serra start building a camp to explore a gold mine, but tensions rise to a full-fledged war between them and their Brazilian competitors. And things get even more complicated when Vincent discovers that the mythical Sarah Bernhard mine is not a legend. The Guyanese jungle is a world where businessmen, gangsters, geologists and soldiers collide, and men kill and are killed for a few grams of the precious metal.

    French

    Description

    Гвиана / Гайана / Guyane


    image


    image

    Год выпуска : 2018

    Страна : Франция, Canal+, Mascaret Films, Shine Films

    Жанр : приключения, драма

    Продолжительность : ~ 00:50:00

    Перевод : профессиональный (многоголосый закадровый) Baibako

    Режиссёр : Ким Шапирон, Жером Корнюо, Филипп Трибуа, Фабьен Нури

    В ролях : Стани Коппет, Мэтью Спинози, Оливье Рабурден, Анна Суарес, Исака Савадого, Нунес Де Мелу Маурийу, Флора Бонфанти, Дианье Тиа, Сантос Кардосо Рубенс, Кваджани Белисонг

    Описание : Чтобы не вылететь из университета, молодой геолог отправляется на стажировку в далёкую Гвиану. Этот экзотический кусок французской земли, расположенный в джунглях на северо-востоке Южной Америки, — настоящая жила для золотодобывающих компаний, а также всякого рода проходимцев и изгоев, готовых убить за самородок. Здесь герою придётся сдавать экзамен на умение выживать в экстремальных условиях, и «завал» такого испытания грозит уже не отчислением, а настоящей гибелью.

    image image

    Сэмпл

    Ссылка на предыдущие и альтернативные раздачи

    Качество : BDRip 1080p

    Контейнер : MKV

    Видео : AVC, 1920x956 (2.008), ~ 8300 Kbps, 25.000 fps

    Аудио 1 : AC3, 48 kHz, 6 ch, 384 kbps -

    Rus

    (Baibako)

    Аудио 2 : AC3, 48 kHz, 6 ch, 640 kbps -

    Fre

    Субтитры : Нет

    Реклама : Отсутствует

    Спасибо : image

    Релиз

    image

    Выражаю Большую Благодарность всем моим друзьям с сайта EniaHD за помощь в работе над релизом!!!
    Особая уважуха ZgurVas !!!
    Сбор материала, обработка видео и звука: Atla22

    Список серий

    2-01. Эпизод 1 (24.09.2018)
    2-02. Эпизод 2 (24.09.2018)
    2-03. Эпизод 3 (01.10.2018)
    2-04. Эпизод 4 (01.10.2018)
    2-05. Эпизод 5 (08.10.2018)
    2-06. Эпизод 6 (08.10.2018)
    2-07. Эпизод 7 (15.10.2018)
    2-08. Эпизод 8 (15.10.2018)

    MediaInfo

    Код:

    Общее
    Уникальный идентификатор                 : 221500219210758239259754454034733051266 (0xA6A363F6EE98E896A36C10BD7B2BAD82)
    Полное имя                               : Гвиана (Гайана). 2 сезон. 2018. EniaHD (BDRip 1080p)Guyane.s02e01. Эпизод 1.mkv
    Формат                                   : Matroska
    Версия формата                           : Version 2
    Размер файла                             : 3,49 Гбайт
    Продолжительность                        : 52 м. 9 с.
    Общий поток                              : 9594 Кбит/сек
    Дата кодирования                         : UTC 2020-02-06 11:09:52
    Программа кодирования                    : mkvmerge v6.9.1 ('Blue Panther') 32bit built on Apr 18 2014 18:15:44
    Библиотека кодирования                   : libebml v1.3.0 + libmatroska v1.4.1

    Видео
    Идентификатор                            : 1
    Формат                                   : AVC
    Формат/Информация                        : Advanced Video Codec
    Профиль формата                          : [email protected]
    Настройки формата                        : CABAC / 4 Ref Frames
    Параметр CABAC формата                   : Да
    Параметр RefFrames формата               : 4 кадра
    Идентификатор кодека                     : VMPEG4/ISO/AVC
    Продолжительность                        : 52 м. 9 с.
    Битрейт                                  : 8379 Кбит/сек
    Ширина                                   : 1920 пикселей
    Высота                                   : 956 пикселей
    Соотношение сторон                       : 2,008
    Режим частоты кадров                     : Постоянный
    Частота кадров                           : 25,000 кадров/сек
    Цветовое пространство                    : YUV
    Субдискретизация насыщенности            : 4:2:0
    Битовая глубина                          : 8 бит
    Тип развёртки                            : Прогрессивная
    Бит/(Пиксели*Кадры)                      : 0.183
    Размер потока                            : 3,05 Гбайт (87%)
    Библиотека кодирования                   : x264 core 157 r2935 545de2f
    Настройки программы                      : cabac=1 / ref=4 / deblock=1:-3:-3 / analyse=0x3:0x133 / me=umh / subme=10 / psy=1 / psy
    rd=1.00:0.00 / mixedref=1 / merange=48 / chromame=1 / trellis=2 / 8x8dct=1 / cqm=0 / deadzone=21,11 / fastpskip=0 / chromaqpoffset=-2 / threads=18 / lookaheadthreads=3 / slicedthreads=0 / nr=0 / decimate=0 / interlaced=0 / bluraycompat=0 / constrainedintra=0 / bframes=8 / bpyramid=2 / badapt=2 / bbias=0 / direct=3 / weightb=1 / opengop=0 / weightp=2 / keyint=250 / keyintmin=23 / scenecut=40 / intrarefresh=0 / rc=crf / mbtree=0 / crf=18.0 / qcomp=0.60 / qpmin=0 / qpmax=69 / qpstep=4 / ipratio=1.30 / pbratio=1.20 / aq=3:0.80
    Язык                                     : French
    Default                                  : Да
    Forced                                   : Нет

    Аудио #1
    Идентификатор                            : 2
    Формат                                   : AC-3
    Формат/Информация                        : Audio Coding 3
    Коммерческое название                    : Dolby Digital
    Идентификатор кодека                     : A_AC3
    Продолжительность                        : 52 м. 9 с.
    Вид битрейта                             : Постоянный
    Битрейт                                  : 384 Кбит/сек
    Каналы                                   : 6 каналов
    Channel layout                           : L R C LFE Ls Rs
    Частота                                  : 48,0 КГц
    Частота кадров                           : 31,250 кадров/сек (1536 SPF)
    Битовая глубина                          : 16 бит
    Метод сжатия                             : С потерями
    Размер потока                            : 143 Мбайт (4%)
    Язык                                     : Russian
    ServiceKind/String                       : Complete Main
    Default                                  : Да
    Forced                                   : Нет

    Аудио #2
    Идентификатор                            : 3
    Формат                                   : AC-3
    Формат/Информация                        : Audio Coding 3
    Коммерческое название                    : Dolby Digital
    Идентификатор кодека                     : A_AC3
    Продолжительность                        : 52 м. 9 с.
    Вид битрейта                             : Постоянный
    Битрейт                                  : 640 Кбит/сек
    Каналы                                   : 6 каналов
    Channel layout                           : L R C LFE Ls Rs
    Частота                                  : 48,0 КГц
    Частота кадров                           : 31,250 кадров/сек (1536 SPF)
    Битовая глубина                          : 16 бит
    Метод сжатия                             : С потерями
    Размер потока                            : 239 Мбайт (7%)
    Язык                                     : French
    ServiceKind/String                       : Complete Main
    Default                                  : Нет
    Forced                                   : Нет

    Скриншоты

    imageimage
    imageimage
    imageimage


    More at ibit.to
    And ibit.uno
    And ibit.am
    And ibit.ws

    Reviews

    Comments

    2 years ago

    ZgurVas писал(а): 78851138Гвиана / Гайана А ничего, что это две разные страны?

    Files

    Гвиана (Гайана). 2 сезон. 2018. EniaHD (BDRip 1080p)Guyane.s02e01. Эпизод 1.mkv 3.8 GB
    Гвиана (Гайана). 2 сезон. 2018. EniaHD (BDRip 1080p)Guyane.s02e02. Эпизод 2.mkv 3.8 GB
    Гвиана (Гайана). 2 сезон. 2018. EniaHD (BDRip 1080p)Guyane.s02e03. Эпизод 3.mkv 3.3 GB
    Гвиана (Гайана). 2 сезон. 2018. EniaHD (BDRip 1080p)Guyane.s02e04. Эпизод 4.mkv 3.3 GB
    Гвиана (Гайана). 2 сезон. 2018. EniaHD (BDRip 1080p)Guyane.s02e05. Эпизод 5.mkv 3.2 GB
    Гвиана (Гайана). 2 сезон. 2018. EniaHD (BDRip 1080p)Guyane.s02e06. Эпизод 6.mkv 3.2 GB
    Гвиана (Гайана). 2 сезон. 2018. EniaHD (BDRip 1080p)Guyane.s02e07. Эпизод 7.mkv 2.7 GB
    Гвиана (Гайана). 2 сезон. 2018. EniaHD (BDRip 1080p)Guyane.s02e08. Эпизод 8.mkv 3.2 GB

    Stream

    Downloading Seeding Гвиана (Гайана). 2 сезон. 2018. EniaHD (BDRip 1080p) from to 0 peers.
    of
    0 b/s / ↗0 b/s