• 0
  • 0
  • done
Anonymous Downloadondemand_video
  • Дверь (1999).avi
  • 133 MB
  • alex.n42
  • 1999 avi
  • Мультфильмы
Warning! Use a VPN When Downloading Torrents!
Your IP Address is ,
Your Internet Provider can see when you download torrents! Hide your IP ADDRESS with a VPN
We strongly recommend Trust.Zone VPN to hide your torrenting. It's FREE!
DOWNLOAD VPN

Description

image

Дверь

Страна : Беларусь

Жанр : мультфильм, сатира

Продолжительность : 00:09:52

Год выпуска : 1999

Русские субтитры : нет

Режиссёр : Лев Шукалюков

Описание : Работящий мужичок живёт в своём домике и держит хозяйство. Однажды из города прибывает строительная бригада и начинает возводить по соседству огромное многофункциональное здание. Позже выясняется, что впопыхах забыли сделать двери. Начальник бросается к тому мужичку...

Качество : WEBRip

Формат : AVI

Видео : 1593 kbps, 640х480 (4:3), 25.000 fps, MPEG-4 Visual (XviD)

Аудио : 192 kbps, 44.1 kHz, 2 channels, MPEG Audio (MP3)

Субтитры : отсутствуют

Подробные технические данные

`General
Complete name : Дверь (1999).avi
Format : AVI
Format/Info : Audio Video Interleave
File size : 127 MiB
Duration : 9mn 52s
Overall bit rate : 1 794 Kbps
Writing application : MEncoder SVN-r30881(20100311-gcc4.3.3)
Writing library : VirtualDub build 35491/release

Video
ID : 0
Format : MPEG-4 Visual
Format profile : Advanced [email protected]
Format settings, BVOP : 2
Format settings, QPel : No
Format settings, GMC : No warppoints
Format settings, Matrix : Default (H.263)
Codec ID : XVID
Codec ID/Hint : XviD
Duration : 9mn 52s
Bit rate : 1 593 Kbps
Width : 640 pixels
Height : 480 pixels
Display aspect ratio : 4:3
Frame rate : 25.000 fps
Color space : YUV
Chroma subsampling : 4:2:0
Bit depth : 8 bits
Scan type : Progressive
Compression mode : Lossy
Bits/(Pixel*Frame) : 0.207
Stream size : 112 MiB (89%)
Writing library : XviD 73

Audio
ID : 1
Format : MPEG Audio
Format version : Version 1
Format profile : Layer 3
Mode : Joint stereo
Mode extension : MS Stereo
Codec ID : 55
Codec ID/Hint : MP3
Duration : 9mn 52s
Bit rate mode : Constant
Bit rate : 192 Kbps
Channel(s) : 2 channels
Sampling rate : 44.1 KHz
Compression mode : Lossy
Delay relative to video : 16ms
Stream size : 13.6 MiB (11%)
Alignment : Split accross interleaves
Interleave, duration : 40 ms (1.00 video frame)
Interleave, preload duration : 500 ms `

Скриншоты

image image image image


More at ibit.to
And ibit.uno
And ibit.ws

Comments

Files

Дверь (1999).avi 133 MB

Stream

Downloading Seeding Дверь (1999).avi from to 0 peers.
of
0 b/s / ↗0 b/s