• 1
  • -
  • done
Download
  • АнтиФауст (Георг Фризен) [1993, драма, VHSRip, AVC]
  • 686 MB
  • zilnet
  • 1993 VHSRip AVC
  • Главная

Description

АнтиФауст

image

Жанр : драма

Год выпуска : 1993

Продолжительность : 01:21:37

Субтитры : английские (вшиты в видео)

Режиссёр : Георг Фризен

В ролях : Виктор Авилов, Николай Лебедев (II), Вадим Гемс, Ольга Данилова (II), Ирина Сидорова, Денис Карасёв, Ольга Бешуля, Кирилл Дубровицкий, Инна Кара-Моско, Александр Кузьмичёв

Описание : История падшего ангела Гильберта, который возвращается на землю со страшной миссией — убить собственную дочь...

Доп. информация : Благодарим From Outer Space.

Сэмпл : http://sendfile.su/1612974

Качество видео : VHSRip

Формат видео : MP4

Видео : AVC, 640*480, 4:3, 25fps, 1041kbps

Аудио : AAC LC, 132kbps, 44,1kHz, 2ch

MediaInfo

Общее
Полное имя : D:WedVideoАнтиФауст.mp4
Формат : MPEG-4
Профиль формата : Base Media
Идентификатор кодека : isom (isom/iso2/avc1/mp41)
Размер файла : 686 Мбайт
Продолжительность : 1 ч. 21 м.
Режим общего битрейта : Переменный
Общий поток : 1 175 Кбит/сек
Программа кодирования : Lavf58.45.100

Видео
Идентификатор : 1
Формат : AVC
Формат/Информация : Advanced Video Codec
Профиль формата : [email protected]
Настройки формата : CABAC / 3 Ref Frames
Параметр CABAC формата : Да
Параметр RefFrames формата : 3 кадра
Параметр GOP формата : M=1, N=76
Идентификатор кодека : avc1
Идентификатор кодека/Информация : Advanced Video Coding
Продолжительность : 1 ч. 21 м.
Вид битрейта : Переменный
Битрейт : 1 041 Кбит/сек
Максимальный битрейт : 3 075 Кбит/сек
Ширина : 640 пикселей
Высота : 480 пикселей
Соотношение сторон : 4:3
Частота кадров : 25,000 кадров/сек
Цветовое пространство : YUV
Субдискретизация насыщенности : 4:2:0
Битовая глубина : 8 бит
Тип развёртки : Прогрессивная
Бит/(Пиксели*Кадры) : 0.136
Размер потока : 608 Мбайт (89%)
Дата пометки : UTC 2021-07-11 09:22:39
Codec configuration box : avcC

Аудио
Идентификатор : 2
Формат : AAC LC
Формат/Информация : Advanced Audio Codec Low Complexity
Идентификатор кодека : mp4a-40-2
Продолжительность : 1 ч. 21 м.
Вид битрейта : Постоянный
Битрейт : 132 Кбит/сек
Каналы : 2 канала
Channel layout : L R
Частота : 44,1 КГц
Частота кадров : 43,066 кадра/сек (1024 SPF)
Метод сжатия : С потерями
Размер потока : 76,5 Мбайт (11%)
Default : Да
Alternate group : 1
Дата пометки : UTC 2021-07-11 09:22:39

Скриншот c названием фильма

image

Скриншоты

image image image image


More at ibit.to
And ibit.uno
And ibit.am
And ibit.ws

Comments

2 weeks ago

zilnet писал(а): 81699432Не понимаю, что не так с постером. Неправильная ссылка. Не должно быть в адресе .jpg.html Картинка должна кончаться на формат файла. .jpg .pngПример моего баннера - чистая прямая ссылка на картинку Код: [img] так выглядит правильный код.

1 week ago

Цитата: Субтитры: нет Субтитры есть, английские, неотключаемые /hardcoded/.

1 week ago

Larissa011, спасибо, поправил.

1 week ago

Бредовый фильм. Глянул только из-за Авилова...

1 week ago

zilnet Уменьшите, пожалуйста, постер. Он не должен быть больше, чем 500x600

Files

Stream

Downloading Seeding АнтиФауст (Георг Фризен) [1993, драма, VHSRip, AVC] from to 0 peers.
of
0 b/s / ↗0 b/s