• 36
  • 3
  • done
Sponsored Downloadondemand_video
  • ментовские войны 10.2016.HDTVRip.RG.Russkie.serialy.&.Files-x
  • 8.6 GB
  • Сибиряк777
  • 2016 HDTVRip Russkie serialy Files
  • Русские сериалы
100%

10: 10(2010)

  • Drama
  • A Swiss crime thriller and psychological drama with a difference - the action follows a high stakes poker game secretly watched by the police. Half a million francs are in the pot but more than just money is at stake.

    expand_more
    French

    Description

    Ментовские войны 10

    image


    image

    Год выпуска : 2016

    Производство : Россия, Студия Панорама

    Жанр : Боевик, детектив, криминал

    Продолжительность : 00:45:00

    Субтитры : Нет

    Режиссёр :

    Денис Скворцов

    В ролях : Александр Устюгов, Дмитрий Быковский-Ромашов, Всеволод Цурило, Мария Иванова (IV), Ольга Павловец, Андрей Родимов, Роберт Студеновский, Дмитрий Мухамадеев, Сергей Евсеев, Андрей Кузнецов, Дмитрий Лебедев (III), Антон Гриценко, Денис Баканов, Михаил Новицкий, Максим Матвеев (II), Сергей Хомченков, Сергей Выборнов, Владимир Маслаков, Ксения Алексеева, Андрей Полищук

    Описание :

    Прошел год, как Шилова и его верных друзей перевели в отдел по борьбе с незаконным оборотом оружия. За это время сынишка Шилова и Максаковой немного подрос, Джексон более-менее наладил отношения с Юлией, а Арнаутов с Морозовой всё так же с нежностью глядят друг на друга. Панайотов скрылся в неизвестном направлении и не дает о себе знать, а Марианна, пытаясь хоть как-то наладить новую жизнь, после всех пережитых ужасов, с головой уходит в создание телевизионного ток-шоу "Горькая правда". Именно по приглашению Марианны Шилов должен принять участие в качестве эксперта на съемках сюжета программы. Но этим планам не суждено сбыться. Группа неопознанных людей, ворвалась в студию и расстреляла всех, кто там был – режиссера, операторов, техперсонал, Марианну. Следователи связывают эти убийства с репортажем, над которым работала группа – скандал вокруг генерала Калюжного. Неприятности у генерала идут одна за другой с тех пор, как он перешел дорогу важной «шишке» из Минобороны – Волчанской. И хотя, расследование убийств теперь вне компетенции Шилова, оставаться в стороне он точно не собирается.


    Релиз-группа : image image image


    Все раздачи сериала / Сэмпл


    Качество : HDTVRip

    Формат : AVI

    Видео кодек : XviD

    Аудио кодек : AC3

    Видео : 720x400 (16:9), 25.000 fps, XviD build 73, 1116 Kbps, 0.155 Bits/Pixel

    Аудио : 48 kHz, AC3 Dolby Digital, 2 ch, 192 Kbps


    Фильм № 1 "Кукловоды" 1-4 серии
    Фильм № 2 "Окончательный расчёт" 1-4 серии
    Фильм № 3 "Доверенное лицо" 1-4 серии
    Фильм № 4 "Лабиринт" 1-4 серии


    MI

    General
    Complete name : Downloadsментовские войны 10.2016.HDTVRip.RG.Russkie.serialy.&.Files-x
    Format : AVI
    Format/Info : Audio Video Interleave
    Overall bit rate : 1 318 Kbps
    Writing application : VirtualDubMod 1.5.10.3 (build 2550/release)
    Writing library : VirtualDubMod build 2550/release
    Video #0
    ID : 0
    Format : MPEG-4 Visual
    Format profile : Advanced Simple@L5
    Format settings, BVOP : 1
    Format settings, QPel : No
    Format settings, GMC : No warppoints
    Format settings, Matrix : Custom
    Codec ID : XVID
    Codec ID/Hint : XviD
    Duration : 2mn 3s
    Bit rate : 1 116 Kbps
    Width : 720 pixels
    Height : 400 pixels
    Display aspect ratio : 16:9
    Frame rate : 25.000 fps
    Color space : YUV
    Chroma subsampling : 4:2:0
    Bit depth : 8 bits
    Scan type : Progressive
    Compression mode : Lossy
    Bits/(Pixel*Frame) : 0.155
    Stream size : 16.4 MiB (85%)
    Writing library : XviD 73
    Audio #1
    ID : 1
    Format : AC-3
    Format/Info : Audio Coding 3
    Mode extension : CM (complete main)
    Format settings, Endianness : Big
    Codec ID : 2000
    Duration : 2mn 3s
    Bit rate mode : Constant
    Bit rate : 192 Kbps
    Channel(s) : 2 channels
    Channel positions : Front: L R
    Sampling rate : 48.0 KHz
    Bit depth : 16 bits
    Compression mode : Lossy
    Stream size : 2.82 MiB (15%)
    Alignment : Split accross interleaves
    Interleave, duration : 40 ms (1.00 video frame)
    Interleave, preload duration : 500 ms

    Скриншоты

    image image image image

    Внимание! Раздача ведётся путём добавления новых серий:

    (1) остановить скачивание,
    (2) удалить старый торрент у себя из клиента (старые серии удалять не надо),
    (3) скачать новый торрент и запустить его у себя в клиенте вместо старого, при этом указать клиенту путь в старую папку куда и должно происходить скачивание новых серий.
    Ваш клиент при этом должен произвести хеширование (проверку) старой папки (если не производит сам - помогите ему сделать это), и будет докачивать только те серии которых у вас ещё нет. Старые серии при этом не удаляются, а продолжают раздаваться!
    Eсли вы уже удалили старые серии, то предотвратить повторную закачку старых серий можно, отжав галочку в соответсвующих местах при запуске нового торрента. По возможности, желательно не удалять старые серии как можно дольше чтобы релизёр не столько продолжал раздавать старые серии, а смог сконцентрироваться на новых .

    Сторонней рекламы нет!


    More at ibit.to
    And ibit.uno
    And ibit.ws

    Reviews

    Comments

    2 years ago

    Сибиряк777

    Files

    13.ментовские войны 10.2016.HDTVRip.RG.Russkie.serialy.&.Files-x.avi 550 MB
    14.ментовские войны 10.2016.HDTVRip.RG.Russkie.serialy.&.Files-x.avi 550 MB
    16.ментовские войны 10.2016.HDTVRip.RG.Russkie.serialy.&.Files-x.avi 550 MB
    04.ментовские войны 10.2016.HDTVRip.RG.Russkie.serialy.&.Files-x.avi 550 MB
    10.ментовские войны 10.2016.HDTVRip.RG.Russkie.serialy.&.Files-x.avi 550 MB
    06.ментовские войны 10.2016.HDTVRip.RG.Russkie.serialy.&.Files-x.avi 550 MB
    03.ментовские войны 10.2016.HDTVRip.RG.Russkie.serialy.&.Files-x.avi 550 MB
    12.ментовские войны 10.2016.HDTVRip.RG.Russkie.serialy.&.Files-x.avi 550 MB
    15.ментовские войны 10.2016.HDTVRip.RG.Russkie.serialy.&.Files-x.avi 550 MB
    02.ментовские войны 10.2016.HDTVRip.RG.Russkie.serialy.&.Files-x.avi 550 MB
    11.ментовские войны 10.2016.HDTVRip.RG.Russkie.serialy.&.Files-x.avi 550 MB
    07.ментовские войны 10.2016.HDTVRip.RG.Russkie.serialy.&.Files-x.avi 550 MB
    01.ментовские войны 10.2016.HDTVRip.RG.Russkie.serialy.&.Files-x.avi 550 MB
    09.ментовские войны 10.2016.HDTVRip.RG.Russkie.serialy.&.Files-x.avi 550 MB
    05.ментовские войны 10.2016.HDTVRip.RG.Russkie.serialy.&.Files-x.avi 550 MB
    08.ментовские войны 10.2016.HDTVRip.RG.Russkie.serialy.&.Files-x.avi 550 MB

    Stream

    Downloading Seeding ментовские войны 10.2016.HDTVRip.RG.Russkie.serialy.&.Files-x from to 0 peers.
    of
    0 b/s / ↗0 b/s