• -
  • -
  • done
Download
  • Світ навиворіт : Еквадор
  • 4.8 GB
  • mal4ik2016
  • Главная

Description

Мир Наизнанку / Світ навиворіт

image

Дата/Год выпуска : 2021

Страна : Украина

Жанр : Документальный, путешествия, туризм

Продолжительность : 00:50:00

Перевод : Не требуется

Режиссер : Виталий Нарышкин

Ведущий : Дмитрий Комаров

Описание : Познавательная телепередача о неизвестных ранее сторонах жизни различных народов. Дмитрий Комаров, ведущий и автор проекта, ездит с оператором по континентам, заезжая в самые отдаленные уголки планеты. Там он знакомится с культурой, бытом, работой и особенностями местных жителей. Это совсем не туристические маршруты с красочными постановками. Дмитрий испытывает на себе все стороны жизни народа, у которого гостит. Он пробует традиционную еду, работает, участвует в праздничных гуляньях. Мир наизнанку показывает в основном культуру и традиции малоизвестных народов, в краях которых нет крупных туристических центров. Маленькие племена Африки, мексиканские дебри, Камбоджа и Боливия. Сюжет некоторых выпусков передачи показывает новые стороны и более популярных стран, таких как Непал, Япония и Индия. С каждой новой серией зритель узнает новые подробности быта чужих народов. Некоторые из них настолько не похожи на остальной мир, что легко могут шокировать. Но вместе с тем, появляется желание самому оказаться на месте ведущего, чтобы своими глазами увидеть все чудеса нашего мира.

Сэмпл : http://multi-up.com/1288084

качество : WEBRip

формат : AVI

Видео : XviD build 69, 720x400 (1.80:1), 25 fps, 1600 kbps avg, 0.22 bit/pixel

Аудио : MP3, 48 kHz, 128 kbps cbr, 2 ch

MediaInfo

`
Общее
Полное имя : mir naiznanku S13 E01.WEBRip.mal4ik2016.avi
Формат : AVI
Формат/Информация : Audio Video Interleave
Размер файла : 578 Мбайт
Продолжительность : 46 м. 24 с.
Общий поток : 1 741 Кбит/сек
Программа кодирования : Lavf58.76.100

Видео
Идентификатор : 0
Формат : MPEG-4 Visual
Профиль формата : Advanced Simple
Format level : 5
Параметр BVOP формата : 1
Параметр QPel формата : Нет
Параметр GMC формата : Без точки перехода
Параметр матрицы формата : Default (MPEG)
Идентификатор кодека : XVID
Продолжительность : 46 м. 24 с.
Битрейт : 1 600 Кбит/сек
Ширина : 720 пикселей
Высота : 400 пикселей
Соотношение сторон : 16:9
Частота кадров : 25,000 кадров/сек
Цветовое пространство : YUV
Субдискретизация насыщенности : 4:2:0
Битовая глубина : 8 бит
Тип развёртки : Прогрессивная
Метод сжатия : С потерями
Бит/(Пиксели*Кадры) : 0.222
Размер потока : 531 Мбайт (92%)
Библиотека кодирования : XviD 69

Аудио
Идентификатор : 1
Формат : MPEG Audio
Версия формата : Version 1
Профиль формата : Layer 3
Идентификатор кодека : 55
Продолжительность : 46 м. 24 с.
Вид битрейта : Постоянный
Битрейт : 128 Кбит/сек
Каналы : 2 канала
Частота : 48,0 КГц
Метод сжатия : С потерями
Размер потока : 42,5 Мбайт (7%)
Библиотека кодирования : LAME3.100

`

Скриншоты

image image image image


More at ibit.to
And ibit.uno
And ibit.am
And ibit.ws

Comments

Files

Stream

Downloading Seeding Світ навиворіт : Еквадор from to 0 peers.
of
0 b/s / ↗0 b/s