• 1
  • -
  • done
Sponsored Downloadondemand_video
  • Agents.of.S.H.I.E.L.D._s06_720p_EniaHD
  • 1.8 GB
  • kastiels
  • Agents s06 720p EniaHD
  • Зарубежные сериалы (HD Video)
67%

Marvel's Agents of S.H.I.E.L.D.: Specials(2013)

  • Drama Sci-Fi & Fantasy Action & Adventure
  • Agent Phil Coulson of S.H.I.E.L.D. (Strategic Homeland Intervention, Enforcement and Logistics Division) puts together a team of agents to investigate the new, the strange and the unknown around the globe, protecting the ordinary from the extraordinary.

    expand_more
    English

    Description

    Агенты Щ.И.Т. / Agents of S.H.I.E.L.D.


    image


    image

    Год выпуска : 2019

    Страна : США

    Жанр : фантастика, боевик, триллер, драма, приключения

    Продолжительность : ~ 00:43:00


    Перевод №1 : Профессиональный (дублированный) |

    Невафильм

    Перевод №2 : Профессиональный (многоголосый закадровый) |

    LostFilm


    Режиссёр : Билл Джирхарт, Винс Мисиано, Джесси Бокко

    В ролях : Кларк Грегг, Минг-На, Бретт Далтон, Хлоя Беннет, Йен де Кестекер, Элизабет Хенстридж, Ник Блад, Эдрианн Палики, Генри Симмонс, Люк Митчелл


    Описание : Действия сериала разворачиваются после событий фильма «Мстители». Агент Фил Колсон возвращается в правоохранительную организацию под названием Щ. И. Т., собрав небольшую команду профессионалов, он начинает работу над новыми делами, которые порой бывают очень странными.


    Ссылка на предыдущие и альтернативные раздачи


    imageimageimageimage


    Качество : WEB-DL 720p

    Формат : MKV

    Видео : AVC, 1280x720 (16:9), 23.976 fps, ~3800 Kbps

    Аудио №1 : image AC3, 48,0 kHz, 6 ch, 384 kbps |

    Невафильм

    Аудио №2 : image AC3, 48,0 kHz, 6 ch, 640 kbps |

    LostFilm

    Аудио №3 : image E-AC3, 48,0 kHz, 6 ch, 640 kbps | Original

    Субтитры: Русские (форсированные, полные |

    SFI

    |), английские (SDH)


    Реклама :

    Отсутствует


    Релиз

    Релиз от image

    Отдельная благодарность за помощь в релизе - zgurvas .

    Список серий

    01 Missing Pieces

    Анонс:

    02 Window of Opportunity (17.05.2019)
    03 Fear and Loathing on the Planet of Kitson (24.05.2019)
    04 Code Yellow (31.05.2019)
    05 (14.06.2019)
    06 Inescapable (21.06.2019)
    07 (28.06.2019)
    08 Collision Course
    09 The Baker
    10 Leap
    11 From the Ashes
    12 The Sign
    13 New Life

    MediaInfo

    Код:

    General
    Unique ID                   : 180141703393947693277398550046308564152 (0x878607B351877A36A87A4AC210C3FCB8)
    Complete name               : F:Agents.of.S.H.I.E.L.D.s06720p_EniaHDAgents.of.S.H.I.E.L.D.s06e01.WEB-DL.720p.mkv
    Format                      : Matroska
    Format version              : Version 4 / Version 2
    File size                   : 1.64 GiB
    Duration                    : 42 min 20 s
    Overall bit rate            : 5 545 kb/s
    Movie name                  : Agents of S.H.I.E.L.D. 06x01 - release by Kastiel for EniaHD
    Encoded date                : UTC 2019-05-15 01:56:28
    Writing application         : mkvmerge v18.0.0 ('Apricity') 64-bit
    Writing library             : libebml v1.3.5 + libmatroska v1.4.8

    Video
    ID                          : 1
    Format                      : AVC
    Format/Info                 : Advanced Video Codec
    Format profile              : High@L3.1
    Format settings             : CABAC / 4 Ref Frames
    Format settings, CABAC      : Yes
    Format settings, ReFrames   : 4 frames
    Codec ID                    : V_MPEG4/ISO/AVC
    Duration                    : 42 min 20 s
    Bit rate mode               : Constant
    Bit rate                    : 3 878 kb/s
    Nominal bit rate            : 6 000 kb/s
    Width                       : 1 280 pixels
    Height                      : 720 pixels
    Display aspect ratio        : 16:9
    Frame rate mode             : Constant
    Frame rate                  : 23.976 (24000/1001) FPS
    Color space                 : YUV
    Chroma subsampling          : 4:2:0
    Bit depth                   : 8 bits
    Scan type                   : Progressive
    Bits/(Pixel*Frame)          : 0.176
    Stream size                 : 1.15 GiB (70%)
    Default                     : Yes
    Forced                      : No
    Color range                 : Limited
    Color primaries             : BT.709
    Transfer characteristics    : BT.709
    Matrix coefficients         : BT.709

    Audio #1
    ID                          : 2
    Format                      : AC-3
    Format/Info                 : Audio Coding 3
    Codec ID                    : A_AC3
    Duration                    : 42 min 20 s
    Bit rate mode               : Constant
    Bit rate                    : 384 kb/s
    Channel(s)                  : 6 channels
    Channel positions           : Front: L C R, Side: L R, LFE
    Sampling rate               : 48.0 kHz
    Frame rate                  : 31.250 FPS (1536 SPF)
    Bit depth                   : 16 bits
    Compression mode            : Lossy
    Stream size                 : 116 MiB (7%)
    Title                       : DD5.1 Невафильм
    Language                    : Russian
    Service kind                : Complete Main
    Default                     : Yes
    Forced                      : No

    Audio #2
    ID                          : 3
    Format                      : AC-3
    Format/Info                 : Audio Coding 3
    Codec ID                    : A_AC3
    Duration                    : 42 min 20 s
    Bit rate mode               : Constant
    Bit rate                    : 640 kb/s
    Channel(s)                  : 6 channels
    Channel positions           : Front: L C R, Side: L R, LFE
    Sampling rate               : 48.0 kHz
    Frame rate                  : 31.250 FPS (1536 SPF)
    Bit depth                   : 16 bits
    Compression mode            : Lossy
    Stream size                 : 194 MiB (12%)
    Title                       : DD5.1 LostFilm
    Language                    : Russian
    Service kind                : Complete Main
    Default                     : No
    Forced                      : No

    Audio #3
    ID                          : 4
    Format                      : E-AC-3
    Format/Info                 : Enhanced Audio Coding 3
    Codec ID                    : A_EAC3
    Duration                    : 42 min 20 s
    Bit rate mode               : Constant
    Bit rate                    : 640 kb/s
    Channel(s)                  : 6 channels
    Channel positions           : Front: L C R, Side: L R, LFE
    Sampling rate               : 48.0 kHz
    Frame rate                  : 187.500 FPS (256 SPF)
    Compression mode            : Lossy
    Stream size                 : 194 MiB (12%)
    Title                       : DD+5.1 Original
    Language                    : English
    Service kind                : Complete Main
    Default                     : No
    Forced                      : No

    Text #1
    ID                          : 5
    Format                      : UTF-8
    Codec ID                    : S_TEXT/UTF8
    Codec ID/Info               : UTF-8 Plain Text
    Duration                    : 38 min 10 s
    Bit rate                    : 0 b/s
    Count of elements           : 6
    Stream size                 : 220 Bytes (0%)
    Title                       : Forced
    Language                    : Russian
    Default                     : Yes
    Forced                      : No

    Text #2
    ID                          : 6
    Format                      : UTF-8
    Codec ID                    : S_TEXT/UTF8
    Codec ID/Info               : UTF-8 Plain Text
    Duration                    : 41 min 41 s
    Bit rate                    : 109 b/s
    Count of elements           : 640
    Stream size                 : 33.5 KiB (0%)
    Title                       : SFI
    Language                    : Russian
    Default                     : No
    Forced                      : No

    Text #3
    ID                          : 7
    Format                      : UTF-8
    Codec ID                    : S_TEXT/UTF8
    Codec ID/Info               : UTF-8 Plain Text
    Duration                    : 42 min 9 s
    Bit rate                    : 69 b/s
    Count of elements           : 854
    Stream size                 : 21.6 KiB (0%)
    Title                       : SDH
    Language                    : English
    Default                     : No
    Forced                      : No

    Скриншоты

    image image image image image image


    More at ibit.to
    And ibit.uno
    And ibit.ws

    Reviews

    Comments

    Files

    Agents.of.S.H.I.E.L.D._s06_720p_EniaHDAgents.of.S.H.I.E.L.D.s06e01.WEB-DL.720p.mkv 1.8 GB

    Stream

    Downloading Seeding Agents.of.S.H.I.E.L.D._s06_720p_EniaHD from to 0 peers.
    of
    0 b/s / ↗0 b/s